На грудь (Ирина Вилкова) [2017, Россия, короткометражка, комедия, WEB-DL 1080p]


Размер:  365 MB   |    Зарегистрирован:  5 месяцев 23 дня   |    Скачан:  0 раз

Полного источника не было: Никогда

by Virtuoz ®
26-Мар-2018 05:23

[Цитировать]

На грудь (Ирина Вилкова) [2017, Россия, короткометражка, комедия, WEB-DL 1080p]

На грудь Год выпуска: 2017
Страна: Россия
Жанр: короткометражка, фантастика
Продолжительность: 00:07:33
Перевод: не требуется
Субтитры: нет
Оригинальная аудиодорожка: русский-Режиссёр: Ирина Вилкова
В главных ролях: Денис Пьянов, Дмитрий Аверин, Андрей Шарков, Кирилл Полухин, Лхагва Мунхбат, Анна Иванина, Анна Жмаева, Ирина Вилкова-Описание: Посетители несуществующего бара «На Грудь», который находится на улице Рубинштейна - главной ресторанной улице в Санкт-Петербурге, рассказывают о наболевшем. Кому? Ответ в самом конце этого замечательного фильма.-доп.информация: исходная дорога была pcm из нее и был получен звук flac- -Качество: WEB-DL 1080p
Формат: MKV
Видео кодек: AVC
Аудио кодек: AC3, FLAC
Видео: 1920x1080, 23,976 fps, ~6110 kbps avg, 0.123 bit/pixel
Аудио: [RUS] 48 kHz, AC3 Dolby Digital, 2/0 (L,R) ch, ~192 kbps
Аудио: [RUS] 48 kHz, FLAC, 2ch, ~449 kbps

скриншоты

MediaInfo

Общее
Уникальный идентификатор : 231535304057354412165626204243438648305 (0xAE3013D8C9F5EFC5A4AA635885F4BBF1)
Полное имя : D:\short\Na gryd\На грудь.2017.WEB-DL 1080p.mkv
Формат : Matroska
Версия формата : Version 4 / Version 2
Размер файла : 365 Мбайт
Продолжительность : 7 м. 33 с.
Режим общего битрейта : Переменный
Общий поток : 6753 Кбит/сек
Название фильма : На грудь.2017.WEB-DL 1080p -Azureus-
Дата кодирования : UTC 2017-03-12 07:48:32
Программа кодирования : mkvmerge v9.4.0 ('Knurl') 64bit
Библиотека кодирования : libebml v1.3.4 + libmatroska v1.4.5
Видео
Идентификатор : 1
Формат : AVC
Формат/Информация : Advanced Video Codec
Профиль формата : Main@L4
Параметр CABAC формата : Нет
Параметр ReFrames формата : 2 кадра
Идентификатор кодека : V_MPEG4/ISO/AVC
Продолжительность : 7 м. 33 с.
Битрейт : 6110 Кбит/сек
Ширина : 1920 пикселей
Высота : 1080 пикселей
Соотношение сторон : 16:9
Режим частоты кадров : Постоянный
Частота кадров : 23,976 (24000/1001) кадра/сек
Цветовое пространство : YUV
Субдискретизация насыщенности : 4:2:0
Битовая глубина : 8 бит
Тип развёртки : Прогрессивная
Бит/(Пиксели*Кадры) : 0.123
Размер потока : 330 Мбайт (90%)
Default : Да
Forced : Нет
Аудио #1
Идентификатор : 2
Формат : AC-3
Формат/Информация : Audio Coding 3
Расширение режима : CM (complete main)
Параметр Endianness формата : Big
Идентификатор кодека : A_AC3
Продолжительность : 7 м. 33 с.
Вид битрейта : Постоянный
Битрейт : 192 Кбит/сек
Каналы : 2 канала
Расположение каналов : Front: L R
Частота : 48,0 КГц
Частота кадров : 31,250 кадров/сек (1536 spf)
Метод сжатия : С потерями
Размер потока : 10,4 Мбайт (3%)
Язык : Russian
Default : Да
Forced : Нет
Аудио #2
Идентификатор : 3
Формат : FLAC
Формат/Информация : Free Lossless Audio Codec
Идентификатор кодека : A_FLAC
Продолжительность : 7 м. 33 с.
Вид битрейта : Переменный
Битрейт : 449 Кбит/сек
Каналы : 2 канала
Расположение каналов : Front: L R
Частота : 48,0 КГц
Частота кадров : 11,719 кадров/сек (4096 spf)
Битовая глубина : 16 бит
Размер потока : 24,3 Мбайт (7%)
Библиотека кодирования : libFLAC 1.3.2 (UTC 2017-01-01)
Язык : Russian
Default : Нет
Forced : Нет



Вы не можете начинать темы
Вы не можете отвечать на сообщения
Вы не можете редактировать свои сообщения
Вы не можете удалять свои сообщения
Вы не можете голосовать в опросах
Вы не можете прикреплять файлы к сообщениям
Вы можете скачивать файлы