28 панфиловцев (Ким Дружинин, Андрей Шальопа) [2016, Россия, военный, драма, BDRip 1080p] Sub (rus)


Размер:  10.63 GB   |    Зарегистрирован:  4 месяца 23 дня   |    Скачан:  0 раз

Полного источника не было: Никогда

by Virtuoz ®
26-Мар-2018 05:23

[Цитировать]

28 панфиловцев (Ким Дружинин, Андрей Шальопа) [2016, Россия, военный, драма, BDRip 1080p] Sub (rus)

-28 панфиловцев--Страна: РоссияГод выпуска: 2016Жанр: военный, драмаПродолжительность: 02:00:38--Перевод: не требуетсясубтитры: русские (ChaoLi)Оригинальная аудиодорожка: русская--Режиссер:Ким Дружинин, Андрей Шальопа-В ролях:Александр Устюгов, Яков Кучеревский, Азамат Нигманов, Олег Фёдоров, Алексей Морозов, Антон Кузнецов, Алексей Лонгин, Максим Белбородов, Дмитрий Мурашев, Виталий Коваленко-Описание:
Осенью 1941-го года немецкие части, стоявшие возле Волоколамска, отделяло от Москвы каких-нибудь два часа по шоссе. Однако, на этом шоссе стояла 316-я стрелковая дивизия под командованием генерала И. В. Панфилова. Этот военачальник обладал настолько высоким авторитетом среди личного состава, что бойцы дивизии сами называли себя панфиловцами. А дивизию — панфиловской.
--Дополнительная информация:- -Сэмпл--Качество видео: BDRip 1080p (Исходник: Blu-ray Disc 1080p )
Формат видео: MKV
Видео: AVC (x264), 1920x804 (2.39:1), 24.000 fps, ~11107 kbps avg, 0.293 bit/pixel
Аудио: DTS, 1509 kb/s (6 ch), 48 kHz
Главы: есть-

Сравнение с исходником -> Blu-ray Disc 1080p vs. Rip








MediaInfo/log

log

x264 [info]: frame I:1044 Avg QP:16.09 size:196993
x264 [info]: frame P:39566 Avg QP:18.54 size: 93854
x264 [info]: frame B:133113 Avg QP:19.70 size: 46055
x264 [info]: consecutive B-frames: 1.4% 4.1% 11.8% 23.8% 20.8% 25.2% 8.4% 2.3% 1.0% 0.2% 0.3% 0.7%
x264 [info]: mb I I16..4: 4.1% 77.1% 18.9%
x264 [info]: mb P I16..4: 1.5% 28.2% 3.7% P16..4: 24.5% 24.4% 7.9% 0.0% 0.0% skip: 9.7%
x264 [info]: mb B I16..4: 0.6% 6.7% 0.9% B16..8: 33.2% 20.9% 3.7% direct:11.4% skip:22.5% L0:42.5% L1:39.7% BI:17.8%
x264 [info]: 8x8 transform intra:82.8% inter:62.0%
x264 [info]: coded y,uvDC,uvAC intra: 87.9% 83.4% 52.3% inter: 44.6% 36.3% 4.3%
x264 [info]: i16 v,h,dc,p: 9% 20% 10% 62%
x264 [info]: i8 v,h,dc,ddl,ddr,vr,hd,vl,hu: 10% 9% 12% 9% 12% 11% 12% 11% 14%
x264 [info]: i4 v,h,dc,ddl,ddr,vr,hd,vl,hu: 36% 11% 17% 4% 6% 6% 7% 6% 7%
x264 [info]: i8c dc,h,v,p: 43% 29% 17% 11%
x264 [info]: Weighted P-Frames: Y:10.1% UV:4.6%
x264 [info]: ref P L0: 45.8% 14.9% 21.3% 8.5% 8.8% 0.7% 0.0%
x264 [info]: ref B L0: 82.2% 11.9% 4.9% 1.0%
x264 [info]: ref B L1: 96.4% 3.6%
x264 [info]: kb/s:11106.92
General
Unique ID : 176086873817321569175586627660991373371 (0x8479192AD547BF06926DBCE2ACCB203B)
Complete name : \28_panfilovzev_(2016).BDRip.1080p.DTS.sub_[All.Films][RG].mkv
Format : Matroska
Format version : Version 2
File size : 10.6 GiB
Duration : 2 h 0 min
Overall bit rate : 12.6 Mb/s
Movie name : 28 панфиловцев (2016) BDRip 1080p | [All.Films][RG][rutracker.org]
Encoded date : UTC 2017-03-07 11:12:46
Writing application : mkvmerge v7.8.0 ('River Man') 32bit built on Apr 3 2015 12:11:22
Writing library : libebml v1.3.1 + libmatroska v1.4.2
Video
ID : 1
Format : AVC
Format/Info : Advanced Video Codec
Format profile : High@L4.1
Format settings, CABAC : Yes
Format settings, ReFrames : 5 frames
Codec ID : V_MPEG4/ISO/AVC
Duration : 2 h 0 min
Bit rate : 10.9 Mb/s
Width : 1 920 pixels
Height : 804 pixels
Display aspect ratio : 2.40:1
Frame rate mode : Constant
Frame rate : 24.000 FPS
Color space : YUV
Chroma subsampling : 4:2:0
Bit depth : 8 bits
Scan type : Progressive
Bits/(Pixel*Frame) : 0.293
Stream size : 9.15 GiB (86%)
Writing library : x264 core 148 r2744kMod b97ae06
Encoding settings : cabac=1 / ref=5 / deblock=1:-3:-3 / analyse=0x3:0x113 / me=umh / subme=11 / psy=1 / fade_compensate=0.00 / psy_rd=1.05:0.00 / mixed_ref=1 / me_range=42 / chroma_me=1 / trellis=2 / 8x8dct=1 / cqm=0 / deadzone=21,11 / fast_pskip=1 / chroma_qp_offset=-2 / threads=6 / lookahead_threads=1 / sliced_threads=0 / nr=0 / decimate=1 / interlaced=0 / bluray_compat=0 / constrained_intra=0 / bframes=11 / b_pyramid=2 / b_adapt=2 / b_bias=0 / direct=1 / weightb=1 / open_gop=0 / weightp=2 / keyint=240 / keyint_min=23 / scenecut=40 / intra_refresh=0 / rc_lookahead=60 / rc=crf / mbtree=0 / crf=16.1000 / qcomp=0.60 / qpmin=0 / qpmax=69 / qpstep=4 / vbv_maxrate=14000 / vbv_bufsize=14000 / crf_max=0.0 / nal_hrd=none / filler=0 / ip_ratio=1.40 / pb_ratio=1.30 / aq=1:0.90 / zones=153870,1736724,q=22
Default : Yes
Forced : No
Audio
ID : 2
Format : DTS
Format/Info : Digital Theater Systems
Mode : 16
Format settings, Endianness : Big
Codec ID : A_DTS
Duration : 2 h 0 min
Bit rate mode : Constant
Bit rate : 1 509 kb/s
Channel(s) : 6 channels
Channel positions : Front: L C R, Side: L R, LFE
Sampling rate : 48.0 kHz
Frame rate : 93.750 FPS (512 spf)
Bit depth : 24 bits
Compression mode : Lossy
Stream size : 1.27 GiB (12%)
Language : Russian
Default : Yes
Forced : No
Text
ID : 3
Format : UTF-8
Codec ID : S_TEXT/UTF8
Codec ID/Info : UTF-8 Plain Text
Language : Russian
Default : No
Forced : No
Menu
00:00:00.000 : en:Глава 1
00:01:24.375 : en:Глава 2
00:11:59.208 : en:Глава 3
00:26:15.791 : en:Глава 4
00:38:43.625 : en:Глава 5
00:55:16.416 : en:Глава 6
01:12:21.333 : en:Глава 7
01:25:35.500 : en:Глава 8
01:38:52.333 : en:Глава 9

FAQ по просмотру MKV/h.264/AAC

  • Смогу ли я запустить AVC фильм на своём компьютере?
  • Сампл из раздачи не воспроизводится/тормозит или отсутствует звук/изображение. Что делать?
  • Что такое H.264/AVC и зачем он нужен?
  • Что за дурацкий формат .MKV?
  • Почему MKV? Чем AVI хуже?
  • Не могу переключить/включить/выключить аудио/видео дорожки и/или субтитры. Что делать?
  • Как сделать так, чтобы по умолчанию при просмотре MKV файлов нужные/ненужные субтитры были включены/выключены, и/или сразу проигрывалась дорожка на нужном мне языке?
  • Будут ли фильмы в таком формате проигрываться на бытовых плеерах без компьютера?
  • Проигрываю фильм, а картинка очень сильно отличается от скринов/бледная/перенасыщенная. Что не так?
  • Можно ли сконвертировать AVC в DVD?
  • Почему сплюснута картинка / в характеристиках видео указано два разрешения / что такое анаморфное разрешение?
  • Зачем релизёры обманывают качающих и пишут в заголовке 720p/1080p, а на самом деле раздают видеоматериалы в непонятных разрешениях?
  • Можно ли вывести многоканальный FLAC/AAC-звук на внешний ресивер?
  • У меня 2-канальная акустика/стереонаушники. При просмотре видео почти не слышно/совсем не слышно речь/разговоры, играют только фоновые звуки. Что делать?
  • У меня стоит CoreAVC версии 1.9.5 или младше. При воспроизведении картинка рассыпается на квадраты и разноцветные пятна. Кривой рип?
  • Всё прочитал(-а), решения своей проблемы не нашёл(-шла)/не смог(-ла) разобраться. Что делать?



  • Вы не можете начинать темы
    Вы не можете отвечать на сообщения
    Вы не можете редактировать свои сообщения
    Вы не можете удалять свои сообщения
    Вы не можете голосовать в опросах
    Вы не можете прикреплять файлы к сообщениям
    Вы можете скачивать файлы