Перед рассветом (Ярополк Лапшин) [1989, СССР, боевик, военный, HDTV 1080i]


Размер:  4.72 GB   |    Зарегистрирован:  4 месяца 23 дня   |    Скачан:  0 раз

Полного источника не было: Никогда

by Virtuoz ®
26-Мар-2018 05:23

[Цитировать]

Перед рассветом (Ярополк Лапшин) [1989, СССР, боевик, военный, HDTV 1080i]

Перед рассветом
Страна: СССР
Студия: Свердловская киностудия
Жанр: Боевик, военный
Год выпуска: 1989
Продолжительность: 01:19:36
Режиссёр: Ярополк Лапшин
В ролях: Валерий Рыжаков, Александр Панкратов-Черный, Евгений Миронов, Олег Корчиков, Константин Степанков, Вячеслав Кириличев, Раиса Рязанова, Игорь Варпа, Виктор Уральский, Игорь Головин
Описание: Жаркое лето 1941 года. Небольшая станция в прифронтовой полосе. В один из вагонов погружают группу уголовников. Не успевает поезд проехать и несколько километров, как подвергается налету авиации и атаке десанта. После боя из всего состава в живых остаются только трое: молодой лейтенант НКВД, «вор в законе» и репрессированный генерал. Они бегут в лес, подальше от разбитого поезда и преследующих их немцев. В такой ситуации заключенные, казалось, могли бы считать себя свободными, но лейтенант думает иначе и намерен доставить их к месту назначения.
Доп. информация:
Автор релиза - daboen
Источник - HDTV 1080i TS
Реставрация изображения от Первого канала: сравнение с имеющимся в сети лицензионным ДВД от "Мистерия DVD" - http://screenshotcomparison.com/comparison/200661



Сэмпл: https://yadi.sk/i/k9m6byqz3FhhrR
Качество видео: HDTV 1080i
Формат видео: TS
Видео: MPEG-4, 1920x1080, 25.000 fps, 7880 kbps
Аудио: Русский MP2, 48000 Гц, 2ch, 192 kbps

MediaInfo

Общее
Идентификатор : 1 (0x1)
Полное имя : D:\Pered.rassvetom.1989.HDTV.1080i.ts
Формат : MPEG-TS
Размер файла : 4,72 Гбайт
Продолжительность : 1 ч. 19 м.
Режим общего битрейта : Переменный
Общий поток : 8493 Кбит/сек
Видео
Идентификатор : 2931 (0xB73)
Идентификатор меню : 1115 (0x45B)
Формат : AVC
Формат/Информация : Advanced Video Codec
Профиль формата : High@L4
Параметр CABAC формата : Да
Параметр ReFrames формата : 4 кадра
Идентификатор кодека : 27
Продолжительность : 1 ч. 19 м.
Битрейт : 7880 Кбит/сек
Ширина : 1920 пикселей
Высота : 1080 пикселей
Соотношение сторон : 16:9
Частота кадров : 25,000 кадров/сек
Цветовое пространство : YUV
Субдискретизация насыщенности : 4:2:0
Битовая глубина : 8 бит
Тип развёртки : MBAFF
Метод сохранения типа развёртки : Чередующиеся поля
Порядок развёртки : Верхнее поле первое
Бит/(Пиксели*Кадры) : 0.152
Размер потока : 4,38 Гбайт (93%)
Аудио
Идентификатор : 2932 (0xB74)
Идентификатор меню : 1115 (0x45B)
Формат : MPEG Audio
Версия формата : Version 1
Профиль формата : Layer 2
Идентификатор кодека : 3
Продолжительность : 1 ч. 19 м.
Вид битрейта : Постоянный
Битрейт : 192 Кбит/сек
Каналы : 2 канала
Частота : 48,0 КГц
Метод сжатия : С потерями
Размер потока : 109 Мбайт (2%)
Язык : Russian

Сравнение с DVD

DVD5 --->>> HDTV - http://screenshotcomparison.com/comparison/200661
--->>>
--->>>
--->>>

Скриншот c названием фильма

13.03.2017 - Обновил на более качественный релиз - видеоряд теперь без сбоев!



Вы не можете начинать темы
Вы не можете отвечать на сообщения
Вы не можете редактировать свои сообщения
Вы не можете удалять свои сообщения
Вы не можете голосовать в опросах
Вы не можете прикреплять файлы к сообщениям
Вы можете скачивать файлы