Акварели / Серии: 1-16 из 16 (Алексей Карелин) [2018, мелодрама, WEBRip-AVC]


by Boris G ®
23-Dec-2018 15:27

[Quote]

Акварели / Серии: 1-16 из 16 (Алексей Карелин) [2018, мелодрама, WEBRip-AVC]

Акварели
Год выпуска: 2018
Производство: Filmstream, Vileton production
Жанр: мелодрама
Продолжительность: ~00:52:00 серия
Субтитры: нет
Режиссёр: Алексей Карелин
В ролях: Дарья Щербакова, Марина Могилевская, Илья Алексеев, Оксана Базилевич, Дмитрий Егоров, Игорь Денисов, Пётр Баранчеев, Олег Алмазов, Зоя Антонова, Марта Голубева
Описание: У Аси полностью стерто из памяти ее детство, случившаяся трагедия кардинально изменила судьбу. Новая жизнь началась в 11 лет, в скромной квартире с одинокой мамой Ирой. Мать посвятила себя воспитанию дочери и ее будущему благополучию. Теперь же Ася возвращает долг любимой женщине, решая финансовые проблемы и борясь с пагубным пристрастием женщины к алкоголю. Мимолетная встреча с Дмитрием перешла в серьезный роман. Поначалу он скрывает, что из состоятельной семьи. Их отношения приводят к тому, что она знакомится с богатой семьей своего возлюбленного, которые оберегают темные секреты, и она даже не может представить, что однажды ей самой было суждено стать главной тайной этой семьи. Вскоре девушка понимает, что ее появление там не было случайностью. Встреча с Димой невольно возвращает ее в прошлое и пересекает дорогу властной Регине, возглавляющей эту семью. Регина влюблена в парня и не в состоянии принять тот факт, что ее мужчина ухаживает за другой. Преисполненная ревности, она пойдет на все, чтобы разрушить роман Димы и Аси, и не позволить тайнам прошлого выйти на свет...

Реклама: Нет.
Кинопоиск
Все раздачи сериала
Sample
Качество: WEBRip-AVC - Серый1779
Формат: MKV
Видео кодек: H.264
Аудио кодек: AC3
Видео: MPEG4 AVC Video, H264, 16:9, 1024x576, 25 fps, ~1600 kbps, 0.109 bit/pixel
Аудио: AC3 Dolby Digital, 44.1 kHz, 2/0 (L,R) ch, 192 kbps

Внимание! Раздача ведётся путём добавления новых серий

Раздача ведётся путём добавления новых серий, при каждом добавлении создаётся новый торрент. Чтобы начать докачку новой серии, пользователям необходимо сделать следующее:
- Остановить скачивание.
- Удалить старый торрент у себя из клиента (старые серии удалять не надо).
- Скачать новый торрент и запустить его у себя в клиенте вместо старого, при этом указать клиенту путь в старую папку куда и должно происходить скачивание новых серий.
Ваш клиент при этом должен произвести хеширование (проверку) старой папки (если не производит сам - помогите ему сделать это), и будет докачивать только те серии которых у вас ещё нет. Старые серии при этом не удаляются, а продолжают раздаваться!
Если вы уже удалили старые серии, то предотвратить повторную закачку старых серий можно, отжав галочку в соответствующих местах при запуске нового торрента. По возможности, желательно не удалять старые серии как можно дольше, чтобы релизер не столько продолжал раздавать старые серии, а смог сконцентрироваться на новых.

MI

General
Unique ID : 230624499594682822427931057199501417264 (0xAD80A9B84331384392328D540D661B30)
Complete name : D:\Акварели.(2018).WEB-DLRip.(AVC).Files-x\01.Акварели.(2018).WEB-DLRip.(AVC).by.Серый1779.Files-x.mkv
Format : Matroska
Format version : Version 2
File size : 674 MiB
Duration : 52mn 33s
Overall bit rate : 1 792 Kbps
Encoded date : UTC 2018-09-17 19:26:36
Writing application : mkvmerge v7.8.0 ('River Man') 32bit built on Apr 3 2015 12:11:22
Writing library : libebml v1.3.1 + libmatroska v1.4.2
Video
ID : 1
Format : AVC
Format/Info : Advanced Video Codec
Format profile : High@L4.1
Format settings, CABAC : Yes
Format settings, ReFrames : 9 frames
Codec ID : V_MPEG4/ISO/AVC
Duration : 52mn 33s
Bit rate : 1 600 Kbps
Width : 1 024 pixels
Height : 576 pixels
Display aspect ratio : 16:9
Frame rate mode : Constant
Frame rate : 25.000 fps
Color space : YUV
Chroma subsampling : 4:2:0
Bit depth : 8 bits
Scan type : Progressive
Bits/(Pixel*Frame) : 0.109
Stream size : 588 MiB (87%)
Writing library : x264 core 146 r2538 121396c
Encoding settings : cabac=1 / ref=9 / deblock=1:-2:-1 / analyse=0x3:0x133 / me=umh / subme=9 / psy=1 / psy_rd=1.00:0.15 / mixed_ref=1 / me_range=32 / chroma_me=1 / trellis=2 / 8x8dct=1 / cqm=0 / deadzone=21,11 / fast_pskip=0 / chroma_qp_offset=-3 / threads=18 / lookahead_threads=3 / sliced_threads=0 / nr=0 / decimate=1 / interlaced=0 / bluray_compat=0 / constrained_intra=0 / bframes=9 / b_pyramid=2 / b_adapt=2 / b_bias=0 / direct=1 / weightb=1 / open_gop=0 / weightp=2 / keyint=250 / keyint_min=25 / scenecut=40 / intra_refresh=0 / rc=2pass / mbtree=0 / bitrate=1600 / ratetol=1.0 / qcomp=0.60 / qpmin=0 / qpmax=69 / qpstep=4 / cplxblur=20.0 / qblur=0.5 / ip_ratio=1.40 / pb_ratio=1.30 / aq=2:1.00
Default : Yes
Forced : No
Color primaries : BT.709
Transfer characteristics : BT.709
Matrix coefficients : BT.709
Audio
ID : 2
Format : AC-3
Format/Info : Audio Coding 3
Mode extension : CM (complete main)
Format settings, Endianness : Big
Codec ID : A_AC3
Duration : 52mn 33s
Bit rate mode : Constant
Bit rate : 192 Kbps
Channel count : 2 channels
Channel positions : Front: L R
Sampling rate : 44.1 KHz
Bit depth : 16 bits
Compression mode : Lossy
Stream size : 72.2 MiB (11%)
Default : Yes
Forced : No

Скриншоты


Download

Download free and at maximum speed!

How to Download? · What is a torrent? · Ratings and Limitations




You cannot post new topics in this forum
You cannot reply to topics in this forum
You cannot edit your posts in this forum
You cannot delete your posts in this forum
You cannot vote in polls in this forum
You cannot attach files in this forum
You cannot download files in this forum