Экипаж (Николай Лебедев) [2016, Россия, драма, приключения, триллер, BDRip 720p]


Размер:  8.22 GB   |    Зарегистрирован:  5 месяцев 23 дня   |    Скачан:  0 раз

Полного источника не было: Никогда

by Virtuoz ®
26-Мар-2018 05:23

[Цитировать]

Экипаж (Николай Лебедев) [2016, Россия, драма, приключения, триллер, BDRip 720p]

Экипаж
Страна: Россия
Жанр: драма, приключения, триллер
Год выпуска: 2016
Продолжительность: 02:17:10
Перевод: Не требуется
Субтитры: нет
Навигация по главам: Есть--Режиссер: Николай Лебедев--В ролях: Данила Козловский, Владимир Машков, Агне Грудите, Сергей Кемпо, Катерина Шпица, Сергей Шакуров, Сергей Газаров, Елена Яковлева, Алёна Бабенко, Сергей Романович, Ирина Лачина, Вячеслав Разбегаев...--Описание: История талантливого молодого летчика Алексея Гущина. Он не признает авторитетов, предпочитая поступать в соответствии с личным кодексом чести. За невыполнение абсурдного приказа его выгоняют из военной авиации, и только чудом он получает шанс летать на гражданских самолетах.
Гущин начинает свою летную жизнь сначала. Его наставник - командир воздушного судна - суровый и принципиальный Леонид Зинченко. Его коллега - второй пилот, неприступная красавица Александра. Отношения складываются непросто. Но на грани жизни и смерти, когда земля уходит из-под ног, вокруг - огонь и пепел и только в небе есть спасение, Гущин показывает все, на что он способен. Только вместе экипаж сможет совершить подвиг и спасти сотни жизней.--Доп. информация: | КиноПоиск | IMDB | Сэмпл | --Тип релиза: BDRip 720p Экипаж (2016) [HDCLUB MASTERED] 36335 kbps, 1080p BD-Remux
Контейнер: MKV
Видео: AVC, 1280x546, (2.35:1), 7936 kbps, 24.000 fps, 0.473 bit/pixel
Аудио: AC3 Dolby Digital, 3/2 (L,C,R,l,r) + LFE ch, 48 kHz, 640 kbps

Скриншоты

MediaInfo

x264

raw [info]: 1280x546p 1:1 @ 24/1 fps (cfr)
x264 [info]: using SAR=1/1
x264 [info]: using cpu capabilities: MMX2 SSE2Fast SSSE3 SSE4.2 AVX
x264 [info]: profile High, level 4.1
x264 [info]: frame I:1438 Avg QP:14.60 size:118507
x264 [info]: frame P:43379 Avg QP:15.75 size: 70589
x264 [info]: frame B:152726 Avg QP:18.05 size: 32297
x264 [info]: consecutive B-frames: 2.7% 2.6% 7.0% 20.5% 18.8% 34.8% 5.5% 1.2% 1.7% 3.1% 1.0%
x264 [info]: mb I I16..4: 25.0% 54.2% 20.8%
x264 [info]: mb P I16..4: 11.4% 28.6% 5.2% P16..4: 19.6% 19.9% 12.4% 0.0% 0.0% skip: 2.9%
x264 [info]: mb B I16..4: 1.2% 5.4% 0.6% B16..8: 35.8% 20.3% 6.7% direct:10.3% skip:19.8% L0:45.2% L1:35.6% BI:19.2%
x264 [info]: 8x8 transform intra:67.1% inter:42.0%
x264 [info]: coded y,uvDC,uvAC intra: 95.3% 94.4% 86.4% inter: 44.9% 46.9% 21.0%
x264 [info]: i16 v,h,dc,p: 3% 3% 52% 43%
x264 [info]: i8 v,h,dc,ddl,ddr,vr,hd,vl,hu: 11% 11% 19% 8% 10% 10% 10% 10% 12%
x264 [info]: i4 v,h,dc,ddl,ddr,vr,hd,vl,hu: 24% 9% 6% 8% 12% 11% 11% 9% 10%
x264 [info]: i8c dc,h,v,p: 55% 17% 14% 14%
x264 [info]: Weighted P-Frames: Y:6.5% UV:4.6%
x264 [info]: ref P L0: 43.2% 11.3% 19.1% 7.1% 6.4% 3.9% 4.0% 2.2% 2.5% 0.3% 0.0%
x264 [info]: ref B L0: 66.9% 14.2% 7.4% 4.1% 3.0% 2.5% 1.5% 0.4%
x264 [info]: ref B L1: 93.4% 6.6%
x264 [info]: kb/s:7935.94
General
Unique ID : 245775030870964133888675374354395670508 (0xB8E68C955663662F9E5DA5372429A7EC)
Complete name : Экипаж (2016).mkv
Format : Matroska
Format version : Version 4 / Version 2
File size : 8.22 GiB
Duration : 2 h 17 min
Overall bit rate : 8 578 kb/s
Movie name : Экипаж (2016) BDRip 720p
Encoded date : UTC 2017-02-14 12:51:20
Writing application : mkvmerge v8.1.0 ('Psychedelic Postcard') 64bit
Writing library : libebml v1.3.1 + libmatroska v1.4.2
Cover : Yes
Attachments : cover.jpg
Video
ID : 1
Format : AVC
Format/Info : Advanced Video Codec
Format profile : High@L4.1
Format settings, CABAC : Yes
Format settings, ReFrames : 9 frames
Codec ID : V_MPEG4/ISO/AVC
Duration : 2 h 17 min
Bit rate : 7 936 kb/s
Width : 1 280 pixels
Height : 546 pixels
Display aspect ratio : 2.35:1
Frame rate mode : Constant
Frame rate : 24.000 FPS
Color space : YUV
Chroma subsampling : 4:2:0
Bit depth : 8 bits
Scan type : Progressive
Bits/(Pixel*Frame) : 0.473
Stream size : 7.60 GiB (93%)
Title : Экипаж (2016) By optik.1557
Writing library : x264 core 148 r2744kMod b97ae06
Encoding settings : cabac=1 / ref=9 / deblock=1:-2:-1 / analyse=0x3:0x113 / me=umh / subme=10 / psy=1 / fade_compensate=0.00 / psy_rd=1.01:0.20 / mixed_ref=1 / me_range=32 / chroma_me=1 / trellis=2 / 8x8dct=1 / cqm=0 / deadzone=21,11 / fast_pskip=0 / chroma_qp_offset=-3 / threads=6 / lookahead_threads=1 / sliced_threads=0 / nr=0 / decimate=1 / interlaced=0 / bluray_compat=0 / constrained_intra=0 / bframes=10 / b_pyramid=2 / b_adapt=2 / b_bias=0 / direct=1 / weightb=1 / open_gop=0 / weightp=2 / keyint=250 / keyint_min=24 / scenecut=40 / intra_refresh=0 / rc_lookahead=60 / rc=crf / mbtree=0 / crf=16.9000 / qcomp=0.60 / qpmin=0 / qpmax=69 / qpstep=4 / vbv_maxrate=50000 / vbv_bufsize=62500 / crf_max=0.0 / nal_hrd=none / filler=0 / ip_ratio=1.40 / pb_ratio=1.30 / aq=3:0.80
Language : Russian
Default : Yes
Forced : No
Audio
ID : 2
Format : AC-3
Format/Info : Audio Coding 3
Mode extension : CM (complete main)
Format settings, Endianness : Big
Codec ID : A_AC3
Duration : 2 h 17 min
Bit rate mode : Constant
Bit rate : 640 kb/s
Channel(s) : 6 channels
Channel positions : Front: L C R, Side: L R, LFE
Sampling rate : 48.0 kHz
Frame rate : 31.250 FPS (1536 spf)
Bit depth : 16 bits
Compression mode : Lossy
Stream size : 628 MiB (7%)
Title : Original
Language : Russian
Default : Yes
Forced : No
Menu
00:00:00.000 : en:Chapter 01
00:10:07.315 : en:Chapter 02
00:22:12.705 : en:Chapter 03
00:32:04.463 : en:Chapter 04
00:44:39.425 : en:Chapter 05
00:54:12.748 : en:Chapter 06
01:05:24.003 : en:Chapter 07
01:17:50.373 : en:Chapter 08
01:29:18.435 : en:Chapter 09
01:37:11.658 : en:Chapter 10
01:49:33.733 : en:Chapter 11
02:05:27.603 : en:Chapter 12
02:17:12.182 : en:Chapter 13



Вы не можете начинать темы
Вы не можете отвечать на сообщения
Вы не можете редактировать свои сообщения
Вы не можете удалять свои сообщения
Вы не можете голосовать в опросах
Вы не можете прикреплять файлы к сообщениям
Вы можете скачивать файлы