Будьте моим мужем (Алла Сурикова) [1981, СССР, комедия, WEB-DL 1080p] + Sub Rus


by Virtuoz ®
26-Мар-2018 08:24

[Цитировать]

Будьте моим мужем (Алла Сурикова) [1981, СССР, комедия, WEB-DL 1080p] + Sub Rus

Будьте моим мужем- Страна: СССР
Студия: «Мосфильм»
Жанр: комедия
Год выпуска: 1981
Продолжительность: 01:22:09
Субтитры: русские-Режиссер: Алла Сурикова-В ролях:
Елена Проклова, Андрей Миронов, Филипп Адамович, Нина Русланова, Наталья Крачковская, Владимир Басов, Антон Табаков, Баадур Цуладзе, Олег Анофриев, Николай Гринько, Георгий Штиль, Валентина Воилкова, Леонард Саркисов, Михаил Светин, Анна Варпаховская, Т. Фазылова
Описание:
В разгар курортного сезона свободных мест в гостиницах черноморского побережья не бывает. Наташе, приехавшей отдыхать с сыном, приходится попросить первого встречного мужчину представиться её мужем. Иначе квартирная хозяйка не сдаст ей комнату.-Сэмпл | Кинопоиск-Тип релиза: WEB-DL 1080p
Контейнер: MKV
Видео: MPEG-4 AVC (High@L4.0); 1492x1080 25.000 fps; Display aspect ratio: 1.381:1; 4866 Kbps
Аудио 1: AC-3; 16 bit 48 Khz; 5.1ch 448 Kbps; CBR | DVD5, спасибо serkaz
Аудио 2: AC-3; 16 bit 48 Khz; 1.0ch 224 Kbps; CBR | -"-
Формат субтитров: softsub (SRT)

Дополнительная информация

* Звук не пережимался.
**

MediaInfo

General
Unique ID : 253850609019850019871117338459040624960 (0xBEF9D9538E8EABF1A82AC76F06B7B140)
Complete name : Будьте моим мужем.1981.mkv
Format : Matroska
Format version : Version 2
File size : 3.18 GiB
Duration : 1h 22mn
Overall bit rate : 5 540 Kbps
Encoded date : UTC 2017-02-06 12:04:52
Writing application : mkvmerge v7.8.0 ('River Man') 32bit built on Mar 27 2015 16:18:02
Writing library : libebml v1.3.1 + libmatroska v1.4.2
Video
ID : 1
Format : AVC
Format/Info : Advanced Video Codec
Format profile : High@L4.0
Format settings, CABAC : Yes
Format settings, ReFrames : 5 frames
Codec ID : V_MPEG4/ISO/AVC
Duration : 1h 22mn
Bit rate : 4 758 Kbps
Width : 1 492 pixels
Height : 1 080 pixels
Display aspect ratio : 1.381
Frame rate mode : Constant
Frame rate : 25.000 fps
Color space : YUV
Chroma subsampling : 4:2:0
Bit depth : 8 bits
Scan type : Progressive
Bits/(Pixel*Frame) : 0.118
Stream size : 2.73 GiB (86%)
Title : Будьте моим мужем.1981
Language : Russian
Default : Yes
Forced : No
Color primaries : BT.709
Transfer characteristics : BT.709
Matrix coefficients : BT.709
Color range : Limited
Audio #1
ID : 2
Format : AC-3
Format/Info : Audio Coding 3
Mode extension : CM (complete main)
Format settings, Endianness : Big
Codec ID : A_AC3
Duration : 1h 22mn
Bit rate mode : Constant
Bit rate : 448 Kbps
Channel(s) : 6 channels
Channel positions : Front: L C R, Side: L R, LFE
Sampling rate : 48.0 KHz
Bit depth : 16 bits
Compression mode : Lossy
Stream size : 263 MiB (8%)
Title : AC-3; 16 bits 48 Khz; 5.1ch 448 Kbps; CBR
Language : Russian
Default : Yes
Forced : No
Audio #2
ID : 3
Format : AC-3
Format/Info : Audio Coding 3
Mode extension : CM (complete main)
Format settings, Endianness : Big
Codec ID : A_AC3
Duration : 1h 22mn
Bit rate mode : Constant
Bit rate : 224 Kbps
Channel(s) : 1 channel
Channel positions : Front: C
Sampling rate : 48.0 KHz
Bit depth : 16 bits
Compression mode : Lossy
Stream size : 132 MiB (4%)
Title : AC-3; 16 bits 48 Khz; Mono 224 Kbps; CBR
Language : Russian
Default : No
Forced : No
Text
ID : 4
Format : UTF-8
Codec ID : S_TEXT/UTF8
Codec ID/Info : UTF-8 Plain Text
Title : Субтитры русские
Language : Russian
Default : No
Forced : No
Menu
00:00:00.000 : ru:Пролог. Титры
00:03:59.920 : ru:Странная просьба
00:14:25.800 : ru:Появление "мужа"
00:23:13.520 : ru:"Дикари"
00:33:51.880 : ru:Затруднительное положение
00:40:59.920 : ru:Культурное мероприятие
00:45:16.280 : ru:Танго
00:46:29.240 : ru:Замечательная мама
00:51:25.280 : ru:В поисках жилья
00:54:50.280 : ru:Ревность
00:58:21.480 : ru:"Где ты была?.."
01:05:44.160 : ru:Красный... Зеленый...
01:13:05.480 : ru:Чашечка кофе
01:15:08.880 : ru:Изгнанники
01:20:07.440 : ru:Финал
Скачать

Скачать бесплатно и на максимальной скорости!

Как скачивать? · Что такое торрент? · Рейтинг и ограничения




Вы не можете начинать темы
Вы не можете отвечать на сообщения
Вы не можете редактировать свои сообщения
Вы не можете удалять свои сообщения
Вы не можете голосовать в опросах
Вы не можете прикреплять файлы к сообщениям
Вы не можете скачивать файлы