У прошлого в долгу! / Серии: 1-16 из 16 (Мирослав Малич) [2018, мелодрама, WEBRip]


by Boris G ®
23-Дек-2018 15:27

[Цитировать]

У прошлого в долгу! / Серии: 1-16 из 16 (Мирослав Малич) [2018, мелодрама, WEBRip]

У прошлого в долгу!
Год выпуска: 2018
Производство: Filmstream
Жанр: мелодрама
Продолжительность: ~00:44:00 серия
Субтитры: нет
Режиссёр: Мирослав Малич
В ролях: Ольга Гришина, Дмитрий Сова, Александр Кобзарь, Кирилл Дыцевич, Елена Шилова, Ксения Николаева, Лариса Руснак, Михаил Гаврилов, Тамара Морозова, Илья Алексеев, Наталья Кленина, Ирина Мельник, Анастасия Цымбалару, Оксана Жданова, Полина Носыхина, Александр Мельник
Описание: Жизненная история, двух подруг Вероники и Ларисы, почти в 20 лет... 18-летняя Вероника мечтает стать певицей, поэтому уезжает в столицу поступать в музыкальное училище. В родном городе остаётся её мать, подруга Лариса и влюблённый в нее ещё со школы Костя. В дороге девушка знакомится с Вадимом, и парень вскоре делает ей предложение. Только после свадьбы оказывается, что Вадим использовал её. Вероника уходит от него до того, как понимает, что беременна. Девушка возвращается в родной город и рожает девочку, но через два года опять едет в столицу, чтобы продолжить учёбу и оформить развод. Однако там Веронику ждет новое потрясение: она оказывается свидетельницей убийства, на месте которого застаёт местного авторитета Князя. Кроме того, у себя в кармане девушка находит плёнку с компрометирующими Князя фотографиями. Как это пленка попала ей в карман? Неизвестно. Известно только одно - Веронике нужно срочно скрыться. Но спасет ли ее побег, если под прицелом бандитов теперь находятся самые дорогие для Вероники близкие люди...

Реклама: Нет.
Кинопоиск
Все раздачи сериала
Sample
Качество: WEBRip - Nicodem.Files-x
Формат: AVI
Видео кодек: XviD
Аудио кодек: AC3
Видео: 720x400 (1.80:1), 25 fps, XviD build 73 ~1720 kbps avg, 0.240 bit/pixel
Аудио: 48.0 kHz, AC3 Dolby Digital, 2/0 (L,R) ch, ~ 192 kbps

Внимание! Раздача ведётся путём добавления новых серий

Раздача ведётся путём добавления новых серий, при каждом добавлении создаётся новый торрент. Чтобы начать докачку новой серии, пользователям необходимо сделать следующее:
- Остановить скачивание.
- Удалить старый торрент у себя из клиента (старые серии удалять не надо).
- Скачать новый торрент и запустить его у себя в клиенте вместо старого, при этом указать клиенту путь в старую папку куда и должно происходить скачивание новых серий.
Ваш клиент при этом должен произвести хеширование (проверку) старой папки (если не производит сам - помогите ему сделать это), и будет докачивать только те серии которых у вас ещё нет. Старые серии при этом не удаляются, а продолжают раздаваться!
Если вы уже удалили старые серии, то предотвратить повторную закачку старых серий можно, отжав галочку в соответствующих местах при запуске нового торрента. По возможности, желательно не удалять старые серии как можно дольше, чтобы релизер не столько продолжал раздавать старые серии, а смог сконцентрироваться на новых.

MI

General
Complete name : D:\У прошлого в долгу!.2018.WEBRip.by.Nicodem.Files-x\01.У прошлого в долгу!.2018.WEBRip.by.Nicodem.Files-x.avi
Format : AVI
Format/Info : Audio Video Interleave
File size : 600 MiB
Duration : 43mn 31s
Overall bit rate : 1 928 Kbps
Writing application : VirtualDubMod 1.5.10.3 | www.virtualdub-fr.org || (build 2550/release)
Writing library : VirtualDubMod build 2550/release
Video
ID : 0
Format : MPEG-4 Visual
Format profile : Advanced Simple@L5
Format settings, BVOP : 1
Format settings, QPel : No
Format settings, GMC : No warppoints
Format settings, Matrix : Custom
Codec ID : XVID
Codec ID/Hint : XviD
Duration : 43mn 31s
Bit rate : 1 726 Kbps
Width : 720 pixels
Height : 400 pixels
Display aspect ratio : 16:9
Frame rate : 25.000 fps
Color space : YUV
Chroma subsampling : 4:2:0
Bit depth : 8 bits
Scan type : Progressive
Compression mode : Lossy
Bits/(Pixel*Frame) : 0.240
Stream size : 537 MiB (90%)
Writing library : XviD 73
Audio
ID : 1
Format : AC-3
Format/Info : Audio Coding 3
Mode extension : CM (complete main)
Format settings, Endianness : Big
Codec ID : 2000
Duration : 43mn 31s
Bit rate mode : Constant
Bit rate : 192 Kbps
Channel count : 2 channels
Channel positions : Front: L R
Sampling rate : 48.0 KHz
Bit depth : 16 bits
Compression mode : Lossy
Stream size : 59.8 MiB (10%)
Alignment : Split accross interleaves
Interleave, duration : 40 ms (1.00 video frame)
Interleave, preload duration : 500 ms

Скриншоты


Скачать

Скачать бесплатно и на максимальной скорости!

Как скачивать? · Что такое торрент? · Рейтинг и ограничения




Вы не можете начинать темы
Вы не можете отвечать на сообщения
Вы не можете редактировать свои сообщения
Вы не можете удалять свои сообщения
Вы не можете голосовать в опросах
Вы не можете прикреплять файлы к сообщениям
Вы не можете скачивать файлы