Вокзал для двоих (Эльдар Рязанов) [1982, СССР, мелодрама, комедия, WEB-DL 1080p] + Sub Rus, Eng


by Virtuoz ®
26-Мар-2018 08:24

[Цитировать]

Вокзал для двоих (Эльдар Рязанов) [1982, СССР, мелодрама, комедия, WEB-DL 1080p] + Sub Rus, Eng

Вокзал для двоих (2 серии)- Страна: СССР
Студия: «Мосфильм»
Жанр: мелодрама, комедия
Год выпуска: 1982
Продолжительность: 02:12:40
Субтитры: русские, английские-Режиссер: Эльдар Рязанов-В ролях:
Людмила Гурченко, Олег Басилашвили, Никита Михалков, Нонна Мордюкова, Михаил Кононов, Анастасия Вознесенская, Александр Ширвиндт, Татьяна Догилева, Ольга Волкова, Раиса Этуш
Описание:
Город Заступинск, где-то между Москвой и Алма-Атой, ближе к Воронежу. Вокзальная буфетчица Вера и пианист Платон Рябинин из Москвы познакомились при весьма непривлекательных обстоятельствах. В результате Вера потеряла жениха с дынями, но нашла любимого, который вскоре должен отбыть в отдаленные места, чтобы нести наказание за несовершенное преступление.-Сэмпл | Кинопоиск-Тип релиза: WEB-DL 1080p
Контейнер: MKV
Видео: MPEG-4 AVC (High@L4.0); 1488x1080 25.000 fps; Display aspect ratio: 1.378:1; 4948 Kbps
Аудио 1: AC-3; 16 bit 48 Khz; 5.1ch 448 Kbps; CBR | DVD9, спасибо Basilevs
Аудио 2: AC-3; 16 bit 48 Khz; 1.0ch 224 Kbps; CBR | -"-
Формат субтитров: softsub (SRT)

Дополнительная информация

* Звук не пережимался.
**

MediaInfo

General
Unique ID : 208216888637919493361695206303398256847 (0x9CA51D340D27CB72A44B3A701CCE60CF)
Complete name : Вокзал для двоих.1982.mkv
Format : Matroska
Format version : Version 2
File size : 5.21 GiB
Duration : 2h 12mn
Overall bit rate : 5 623 Kbps
Encoded date : UTC 2017-02-05 21:31:36
Writing application : mkvmerge v7.8.0 ('River Man') 32bit built on Mar 27 2015 16:18:02
Writing library : libebml v1.3.1 + libmatroska v1.4.2
Video
ID : 1
Format : AVC
Format/Info : Advanced Video Codec
Format profile : High@L4.0
Format settings, CABAC : Yes
Format settings, ReFrames : 5 frames
Codec ID : V_MPEG4/ISO/AVC
Duration : 2h 12mn
Bit rate : 4 839 Kbps
Width : 1 488 pixels
Height : 1 080 pixels
Display aspect ratio : 1.378
Frame rate mode : Constant
Frame rate : 25.000 fps
Color space : YUV
Chroma subsampling : 4:2:0
Bit depth : 8 bits
Scan type : Progressive
Bits/(Pixel*Frame) : 0.120
Stream size : 4.48 GiB (86%)
Title : Вокзал для двоих.1982
Language : Russian
Default : Yes
Forced : No
Color primaries : BT.709
Transfer characteristics : BT.709
Matrix coefficients : BT.709
Color range : Limited
Audio #1
ID : 2
Format : AC-3
Format/Info : Audio Coding 3
Mode extension : CM (complete main)
Format settings, Endianness : Big
Codec ID : A_AC3
Duration : 2h 12mn
Bit rate mode : Constant
Bit rate : 448 Kbps
Channel(s) : 6 channels
Channel positions : Front: L C R, Side: L R, LFE
Sampling rate : 48.0 KHz
Bit depth : 16 bits
Compression mode : Lossy
Stream size : 425 MiB (8%)
Title : AC-3; 16 bit 48 Khz; 5.1ch 448 Kbps; CBR | DVD9
Language : Russian
Default : Yes
Forced : No
Audio #2
ID : 3
Format : AC-3
Format/Info : Audio Coding 3
Mode extension : CM (complete main)
Format settings, Endianness : Big
Codec ID : A_AC3
Duration : 2h 12mn
Bit rate mode : Constant
Bit rate : 224 Kbps
Channel(s) : 1 channel
Channel positions : Front: C
Sampling rate : 48.0 KHz
Bit depth : 16 bits
Compression mode : Lossy
Stream size : 213 MiB (4%)
Title : AC-3; 16 bit 48 Khz; Mono 224 Kbps; CBR | DVD9
Language : Russian
Default : No
Forced : No
Text #1
ID : 4
Format : UTF-8
Codec ID : S_TEXT/UTF8
Codec ID/Info : UTF-8 Plain Text
Title : Субтитры русские
Language : Russian
Default : No
Forced : No
Text #2
ID : 5
Format : UTF-8
Codec ID : S_TEXT/UTF8
Codec ID/Info : UTF-8 Plain Text
Title : Субтитры английские
Language : English
Default : No
Forced : No
Menu
00:00:00.000 : ru:1 серия. Пролог
00:06:18.640 : ru:Время стоянки 20 минут
00:19:50.080 : ru:Паспорт ту-ту
00:31:57.560 : ru:Вечером в ресторане
00:38:32.520 : ru:"Зал ожидания"
00:46:42.200 : ru:Ночная трапеза
00:50:34.000 : ru:Дядя Миша
00:57:23.880 : ru:На рынке
01:08:57.400 : ru:2 серия. Приглашение в ресторан
01:18:08.760 : ru:За роялем
01:25:22.800 : ru:Ночь на вокзале
01:38:41.720 : ru:Наутро
01:50:42.640 : ru:Расставание
01:56:25.720 : ru:"Жена" приехала...
02:06:09.880 : ru:"Проспали!.."
02:10:35.760 : ru:Рябинин вернулся!
Скачать

Скачать бесплатно и на максимальной скорости!

Как скачивать? · Что такое торрент? · Рейтинг и ограничения




Вы не можете начинать темы
Вы не можете отвечать на сообщения
Вы не можете редактировать свои сообщения
Вы не можете удалять свои сообщения
Вы не можете голосовать в опросах
Вы не можете прикреплять файлы к сообщениям
Вы не можете скачивать файлы