Дама Пик (Павел Лунгин) [2016, Россия, триллер, WEB-DL 1080p] + Original Rus


Размер:  4.16 GB   |    Зарегистрирован:  4 месяца 23 дня   |    Скачан:  0 раз

Полного источника не было: Никогда

Личеров:  5  [  0 KB/s  ]   Подробная статистика пиров
by Virtuoz ®
26-Мар-2018 05:24

[Цитировать]

Дама Пик (Павел Лунгин) [2016, Россия, триллер, WEB-DL 1080p] + Original Rus

Дама Пик
Страна: Россия
Жанр: триллер
Год выпуска: 2016
Продолжительность: 01:59:52-Перевод: Не требуется
Субтитры: нет
Оригинальная аудиодорожка: русский-Режиссер: Павел Лунгин-В ролях: Ксения Раппопорт, Иван Янковский, Мария Курденевич, Игорь Миркурбанов, Наталья Коляканова, Алексей Колган, Владимир Симонов, Дмитрий Куличков, Беник Аракелян, Евгений Зеленский
Описание: Оперная дива Софья Майер после долгих лет эмиграции возвращается в Россию. Певица намерена поставить «Пиковую даму» Чайковского на сцене, где когда-то дебютировала. Спектакль, без сомнения, станет событием сезона, а все актеры постановки проснутся знаменитыми. О славе и деньгах мечтает молодой певец оперной труппы Андрей, и «Пиковая дама» для него шанс достичь желаемого. Он готов на всё, чтобы получить роль Германна, и об этом догадывается Софья, оставившая для себя роль Графини. Оперная дива начинает жестокую игру, в которую будут вовлечены все участники спектакля.-Релиз от:
-Тип релиза: WEB-DL 1080p
Контейнер: MKV-Видео: 1920x858 (2,25:1), 24 fps, AVC MPEG-4 (x264), High@L4.0 ~ 4491 Кбит/сек, 0.114 bit/pixel-Аудио: Russian: 48 kHz, AC3, 3/2 (L,C,R,l,r) + LFE ch, ~384.00 kbps avg

MediaInfo

Общее
Уникальный идентификатор : 209562220453413216684725367986697448047 (0x9DA8372ED502F836AEEA81C495BAAA6F)
Полное имя : D:\Queen.of.Spades.2016.1080p.WEB-DL.mkv
Формат : Matroska
Версия формата : Version 2
Размер файла : 4,16 Гбайт
Продолжительность : 1 ч. 59 м.
Общий поток : 4974 Кбит/сек
Название фильма : Queen of Spades (2016) - Release for HDCLUB
Дата кодирования : UTC 2017-01-30 14:02:04
Программа кодирования : mkvmerge v3.4.0 ('Rapunzel') built on May 15 2010 09:38:20
Библиотека кодирования : libebml v0.8.0 + libmatroska v0.9.0
Видео
Идентификатор : 1
Формат : AVC
Формат/Информация : Advanced Video Codec
Профиль формата : High@L4.0
Параметр CABAC формата : Да
Параметр ReFrames формата : 5 кадров
Идентификатор кодека : V_MPEG4/ISO/AVC
Продолжительность : 1 ч. 59 м.
Битрейт : 4491 Кбит/сек
Ширина : 1920 пикселей
Высота : 858 пикселей
Соотношение сторон : 2,25:1
Режим частоты кадров : Постоянный
Частота кадров : 24,000 кадра/сек
Цветовое пространство : YUV
Субдискретизация насыщенности : 4:2:0
Битовая глубина : 8 бит
Тип развёртки : Прогрессивная
Бит/(Пиксели*Кадры) : 0.114
Размер потока : 3,76 Гбайт (90%)
Заголовок : Queen of Spades (2016) - Release for HDCLUB
Язык : English
Default : Да
Forced : Нет
Основные цвета : BT.709
Характеристики трансфера : BT.709
Коэффициенты матрицы : BT.709
Аудио
Идентификатор : 2
Формат : AC-3
Формат/Информация : Audio Coding 3
Расширение режима : CM (complete main)
Параметр Endianness формата : Big
Идентификатор кодека : A_AC3
Продолжительность : 1 ч. 59 м.
Вид битрейта : Постоянный
Битрейт : 384 Кбит/сек
Каналы : 6 каналов
Расположение каналов : Front: L C R, Side: L R, LFE
Частота : 48,0 КГц
Битовая глубина : 16 бит
Метод сжатия : С потерями
Размер потока : 329 Мбайт (8%)
Заголовок : AC3 5.1 @ 384 kbps
Язык : Russian
Default : Да
Forced : Нет
Меню
00:00:00.000 : en:1
00:08:13.000 : en:2
00:16:44.083 : en:3
00:22:23.499 : en:4
00:28:00.374 : en:5
00:35:27.540 : en:6
00:41:57.415 : en:7
00:47:24.248 : en:8
00:53:14.414 : en:9
00:59:07.455 : en:10
01:06:59.288 : en:11
01:14:14.038 : en:12
01:24:55.329 : en:13
01:32:45.162 : en:14
01:40:28.037 : en:15
01:46:28.245 : en:16
01:53:58.870 : en:17

Скриншоты





Вы не можете начинать темы
Вы не можете отвечать на сообщения
Вы не можете редактировать свои сообщения
Вы не можете удалять свои сообщения
Вы не можете голосовать в опросах
Вы не можете прикреплять файлы к сообщениям
Вы можете скачивать файлы