28 панфиловцев (Ким Дружинин, Андрей Шальопа) [2016, Россия, военный, драма, BDRip 720p]


Размер:  5.62 GB   |    Зарегистрирован:  4 месяца 23 дня   |    Скачан:  0 раз

Полного источника не было: Никогда

by Virtuoz ®
26-Мар-2018 05:24

[Цитировать]

28 панфиловцев (Ким Дружинин, Андрей Шальопа) [2016, Россия, военный, драма, BDRip 720p]

28 панфиловцев- Страна: Россия
Жанр: военный, драма
Год выпуска: 2016
Продолжительность: 02:00:38
Перевод: не требуется
Субтитры: нет
Оригинальная аудиодорожка: русский
Режиссер: Ким Дружинин, Андрей Шальопа
В ролях: Александр Устюгов (красноармеец Иван Москаленко), Яков Кучеревский (сержант Иван Добробабин), Азамат Нигманов (Мусабек Сенгирбаев), Олег Фёдоров (старшина Григорий Шемякин), Алексей Морозов (политрук Василий Клочков), Антон Кузнецов, Алексей Лонгин (Гундилович), Максим Белбородов, Дмитрий Мурашев, Виталий Коваленко, Сергей Агафонов, Дмитрий Цуцкин
Описание: Осенью 1941-го года немецкие части, стоявшие возле Волоколамска, отделяло от Москвы каких-нибудь два часа по шоссе. Однако, на этом шоссе стояла 316-я стрелковая дивизия под командованием генерала И. В. Панфилова. Этот военачальник обладал настолько высоким авторитетом среди личного состава, что бойцы дивизии сами называли себя панфиловцами. А дивизию - панфиловской.- -Тип релиза: BDRip 720p
Контейнер: MKV
Видео: x264@L4.1, 1280x536 (2.40:1), 24.000 fps, ~5030 kbps avg
Аудио: 48 kHz, DTS, 3/2 (L,C,R,l,r) + LFE ch, ~1509 kbps avg-

MediaInfo | x264 log

Format : Matroska
Format version : Version 4 / Version 2
File size : 5.62 GiB
Duration : 2h 0 min
Overall bit rate : 6 672 kb/s
Movie name : 28 панфиловцев (2016) :: AFM ::
Encoded date : UTC 2017-01-28 07:48:49
Writing application : mkvmerge v8.3.0 ('Over the Horizon') 32bit
Writing library : libebml v1.3.1 + libmatroska v1.4.2
Video
ID : 1
Format : AVC
Format/Info : Advanced Video Codec
Format profile : High@L4.1
Format settings, CABAC : Yes
Format settings, ReFrames : 9 frames
Codec ID : V_MPEG4/ISO/AVC
Duration : 2h 0 min
Bit rate : 5 030 kb/s
Width : 1 280 pixels
Height : 536 pixels
Display aspect ratio : 2.40:1
Frame rate mode : Constant
Frame rate : 24.000 FPS
Color space : YUV
Chroma subsampling : 4:2:0
Bit depth : 8 bits
Scan type : Progressive
Bits/(Pixel*Frame) : 0.306
Stream size : 4.24 GiB (75%)
Title : BDRip by AFM
Writing library : x264 core 148 r2744+55 950084e t_mod_Custom [8-bit@all X86_64]
Encoding settings : cabac=1 / ref=9 / deblock=1:-3:-3 / analyse=0x3:0x113 / me=umh / subme=10 / psy=1 / fade_compensate=0.00 / psy_rd=1.00:0.00 / mixed_ref=1 / me_range=32 / chroma_me=1 / trellis=2 / 8x8dct=1 / cqm=0 / deadzone=21,11 / fast_pskip=0 / chroma_qp_offset=-2 / threads=6 / lookahead_threads=1 / sliced_threads=0 / nr=0 / decimate=1 / interlaced=0 / bluray_compat=0 / constrained_intra=0 / fgo=0 / bframes=12 / b_pyramid=2 / b_adapt=2 / b_bias=0 / direct=1 / weightb=1 / open_gop=0 / weightp=2 / keyint=240 / keyint_min=23 / scenecut=40 / intra_refresh=0 / rc_lookahead=40 / rc=crf / mbtree=0 / crf=16.5000 / qcomp=0.65 / qpmin=0:0:0 / qpmax=69:69:69 / qpstep=4 / vbv_maxrate=50000 / vbv_bufsize=62500 / crf_max=0.0 / nal_hrd=none / filler=0 / ip_ratio=1.35 / pb_ratio=1.25 / aq=3:0.80 / aq-sensitivity=10.00 / aq-factor=1.00:1.00:1.00 / aq2=0 / aq3=0
Language : Russian
Default : Yes
Forced : No
Audio
ID : 2
Format : DTS
Format/Info : Digital Theater Systems
Mode : 16
Format settings, Endianness : Big
Codec ID : A_DTS
Duration : 2h 0 min
Bit rate mode : Constant
Bit rate : 1 509 kb/s
Channel(s) : 6 channels
Channel positions : Front: L C R, Side: L R, LFE
Sampling rate : 48.0 kHz
Frame rate : 93.750 FPS (512 spf)
Bit depth : 24 bits
Compression mode : Lossy
Stream size : 1.27 GiB (23%)
Title : DTS 5.1 ~1509 kbps
Language : Russian
Default : Yes
Forced : No
Menu
00:00:00.000 : en:Глава 1
00:01:24.375 : en:Глава 2
00:11:59.208 : en:Глава 3
00:26:15.791 : en:Глава 4
00:38:43.625 : en:Глава 5
00:55:16.416 : en:Глава 6
01:12:21.333 : en:Глава 7
01:25:35.500 : en:Глава 8
01:38:52.333 : en:Глава 9

x264

x264 [info]: frame I:1103 Avg QP:15.27 size:109144
x264 [info]: frame P:39510 Avg QP:17.21 size: 47130
x264 [info]: frame B:133110 Avg QP:18.75 size: 20187
x264 [info]: consecutive B-frames: 1.7% 2.5% 8.9% 32.7% 18.7% 24.8% 6.6% 1.4% 0.9% 0.4% 0.3% 0.3% 0.7%
x264 [info]: mb I I16..4: 5.0% 77.5% 17.5%
x264 [info]: mb P I16..4: 1.1% 21.6% 2.1% P16..4: 31.9% 23.9% 12.8% 0.0% 0.0% skip: 6.7%
x264 [info]: mb B I16..4: 0.2% 3.3% 0.3% B16..8: 35.1% 16.0% 5.4% direct:11.6% skip:28.2% L0:42.3% L1:38.4% BI:19.2%
x264 [info]: 8x8 transform intra:86.8% inter:59.9%
x264 [info]: coded y,uvDC,uvAC intra: 91.4% 83.7% 62.5% inter: 42.8% 28.6% 4.9%
x264 [info]: i16 v,h,dc,p: 31% 13% 6% 50%
x264 [info]: i8 v,h,dc,ddl,ddr,vr,hd,vl,hu: 11% 9% 11% 9% 12% 11% 12% 11% 13%
x264 [info]: i4 v,h,dc,ddl,ddr,vr,hd,vl,hu: 12% 8% 4% 9% 16% 13% 14% 10% 13%
x264 [info]: i8c dc,h,v,p: 48% 23% 16% 12%
x264 [info]: Weighted P-Frames: Y:11.7% UV:3.8%
x264 [info]: ref P L0: 42.8% 15.7% 14.1% 8.3% 6.7% 3.7% 3.2% 2.1% 3.2% 0.3% 0.0%
x264 [info]: ref B L0: 74.7% 10.0% 5.2% 3.3% 3.6% 1.8% 1.1% 0.4%
x264 [info]: ref B L1: 96.0% 4.0%
x264 [info]: kb/s:5160.91

Скриншоты




Вы не можете начинать темы
Вы не можете отвечать на сообщения
Вы не можете редактировать свои сообщения
Вы не можете удалять свои сообщения
Вы не можете голосовать в опросах
Вы не можете прикреплять файлы к сообщениям
Вы можете скачивать файлы