Универ. Новая общага / Сезон: 15 / Серии: 1-18 из 18 + Фильм о сериале (Константин Колесов) [2018, комедия, WEBRip 1080p]


by Boris G ®
23-Дек-2018 15:27

[Цитировать]

Универ. Новая общага / Сезон: 15 / Серии: 1-18 из 18 + Фильм о сериале (Константин Колесов) [2018, комедия, WEBRip 1080p]

Универ. Новая общага
Год выпуска: 2018
Производство: "Комеди Клаб продакшн"
Жанр: комедия
Продолжительность: ~00:24:00 серия
Субтитры: нет
Режиссёр: Константин Колесов
В ролях: Арарат Кещян, Александр Стекольников, Станислав Ярушин, Анна Кузина, Анна Хилькевич, Константин Шелягин, Григорий Кокоткин, Елена Валюшкина, Сергей Пиоро, Сергей Мурзин

Описание: Финальный сезон сериала «Универ» стартует на ТНТ 3 сентября в 20:30. Ситком завершится четверной свадьбой и неожиданным возвращением старых героев. Первая серия «Универа» вышла в эфир ТНТ в 2008 году, когда Дима Билан выиграл «Евровидение», сборная России по хоккею — чемпионат мира, а «Зенит» — Кубок УЕФА. Ни о Монеточке, ни о Гречке, ни о Гнойном никто тогда и не догадывался. Выражения из ситкома разлетелись на цитаты (слово «мемы» тогда ещё не было так заразно): «пипец», «потеря потерь», «блин блинский» и «крутяк». Песня Кузи «Шняга шняжная» стала негласным гимном прекрасной студенческой жизни. «Универ» ширился, герои взрослели, влюблялись и расставались, уходили и возвращались, учились и тусовались. И теперь настало время попрощаться с ними..
Реклама: Нет.

Все раздачи сериала
Sample
Качество: WEBRip 1080p - ExKinoRay
Формат: MKV
Видео кодек: H.264
Аудио кодек: AC3
Видео: MPEG4 AVC Video, H264, 16:9, 1920x1080, 25 fps, ~5000 kbps, 0.096 bit/pixel
Аудио: AC3 Dolby Digital, 48 kHz, 2/0 (L,R) ch, 192 kbp

Внимание! Раздача ведётся путём добавления новых серий

Раздача ведётся путём добавления новых серий, при каждом добавлении создаётся новый торрент. Чтобы начать докачку новой серии, пользователям необходимо сделать следующее:
- Остановить скачивание.
- Удалить старый торрент у себя из клиента (старые серии удалять не надо).
- Скачать новый торрент и запустить его у себя в клиенте вместо старого, при этом указать клиенту путь в старую папку куда и должно происходить скачивание новых серий.
Ваш клиент при этом должен произвести хеширование (проверку) старой папки (если не производит сам - помогите ему сделать это), и будет докачивать только те серии которых у вас ещё нет. Старые серии при этом не удаляются, а продолжают раздаваться!
Если вы уже удалили старые серии, то предотвратить повторную закачку старых серий можно, отжав галочку в соответствующих местах при запуске нового торрента. По возможности, желательно не удалять старые серии как можно дольше, чтобы релизер не столько продолжал раздавать старые серии, а смог сконцентрироваться на новых.

MI

General
Unique ID : 224131457293379521560342708362962006893 (0xA89E26049F946F54A06980EE1D47F36D)
Complete name : D:\Univer.Novaya.obschaga.2018.s15.WEB-DL.(1080p).ExKinoRay\Univer.s15.e01.2018.WEB-DL.(1080p).ExKinoRay.mkv
Format : Matroska
Format version : Version 2
File size : 922 MiB
Duration : 24mn 50s
Overall bit rate mode : Constant
Overall bit rate : 5 193 Kbps
Movie name : Univer.s15.e01.2018.WEB-DL.(1080p).ExKinoRay
Encoded date : UTC 2018-09-17 22:48:27
Writing application : mkvmerge v5.8.0 ('No Sleep / Pillow') built on Sep 2 2012 15:37:04
Writing library : libebml v1.2.3 + libmatroska v1.3.0
Video
ID : 1
Format : AVC
Format/Info : Advanced Video Codec
Format profile : Baseline@L4.0
Format settings, CABAC : No
Format settings, ReFrames : 4 frames
Format settings, GOP : M=1, N=50
Codec ID : V_MPEG4/ISO/AVC
Duration : 24mn 50s
Bit rate mode : Constant
Bit rate : 5 000 Kbps
Width : 1 920 pixels
Height : 1 080 pixels
Display aspect ratio : 16:9
Frame rate mode : Constant
Frame rate : 25.000 fps
Standard : PAL
Color space : YUV
Chroma subsampling : 4:2:0
Bit depth : 8 bits
Scan type : Progressive
Bits/(Pixel*Frame) : 0.096
Stream size : 870 MiB (94%)
Language : Russian
Default : Yes
Forced : No
Color primaries : BT.709
Transfer characteristics : BT.709
Matrix coefficients : BT.709
Audio
ID : 2
Format : AC-3
Format/Info : Audio Coding 3
Mode extension : CM (complete main)
Format settings, Endianness : Big
Codec ID : A_AC3
Duration : 24mn 50s
Bit rate mode : Constant
Bit rate : 192 Kbps
Channel count : 2 channels
Channel positions : Front: L R
Sampling rate : 48.0 KHz
Bit depth : 16 bits
Compression mode : Lossy
Stream size : 34.1 MiB (4%)
Language : Russian
Default : Yes
Forced : No

Скриншоты


Скачать

Скачать бесплатно и на максимальной скорости!

Как скачивать? · Что такое торрент? · Рейтинг и ограничения




Вы не можете начинать темы
Вы не можете отвечать на сообщения
Вы не можете редактировать свои сообщения
Вы не можете удалять свои сообщения
Вы не можете голосовать в опросах
Вы не можете прикреплять файлы к сообщениям
Вы не можете скачивать файлы