Дед Мороз. Битва магов (Александр Войтинский) [2016, Россия, фэнтези, семейный, приключения, WEB-DL 1080p] (iTunes) + Original Rus


by Virtuoz ®
26-Мар-2018 08:24

[Цитировать]

Дед Мороз. Битва магов (Александр Войтинский) [2016, Россия, фэнтези, семейный, приключения, WEB-DL 1080p] (iTunes) + Original Rus

Дед Мороз. Битва магов
Страна: Россия
Жанр: фэнтези, семейный, приключения
Год выпуска: 2016
Продолжительность: 01:56:25
Перевод: Не требуется iTunes
Субтитры: нет
Оригинальная аудиодорожка: русский
Режиссер: Александр Войтинский
В ролях: Фёдор Бондарчук, Алексей Кравченко, Таисия Вилкова, Никита Волков, Владимир Гостюхин, Егор Бероев, Ксения Алферова, Сергей Бадюк, Ян Цапник, Светлана Пермякова
Описание: Юную Машу мучают видения летающих огненных монстров. Мама переживает за дочь, одноклассники посмеиваются. Но однажды в самом центре Москвы Маша видит наяву сражение крылатых огненных чудовищ с молодыми людьми, которые называют себя магами. Один из них в последний момент, спасает Машу от нападения химеры. Так Маша попадает в секретную корпорацию, где узнаёт, что Дед Мороз реально существует и, возглавляя армию магов, способных управлять снегом и льдом, охраняет Землю от вторжения темных сил.
А новогодний праздник - это магический ритуал, который каждый год совершают люди на всей планете, даже не подозревая, что участвуют в самой масштабной битве добра и зла. Дед Мороз сообщает Маше, что судьба нашего мира висит на волоске, и от Маши зависит, кто победит - свет или тьма.
[box]Скачать сэмпл[/box]
Тип релиза: WEB-DL 1080p
Контейнер: MKV
Видео: MPEG-4 AVC, 4537 Кбит/с, 1920x806, 24,000 fps
Аудио: Rus, AAC, 127 kb/s (2 ch), 48 kHz

MediaInfo

Общее
Уникальный идентификатор : 237425919513316229256140562755210116597 (0xB29E919CA4AEC3CFB7ECEF71B212FDF5)
Полное имя : DED_MOROZ.BITVA_MAGOV_WEB_DL_1080p.mkv
Формат : Matroska
Версия формата : Version 4 / Version 2
Размер файла : 3,80 Гбайт
Продолжительность : 1 ч. 56 м.
Общий поток : 4667 Кбит/сек
Дата кодирования : UTC 2017-01-24 00:10:38
Программа кодирования : mkvmerge v9.7.1 ('Pandemonium') 64bit
Библиотека кодирования : libebml v1.3.4 + libmatroska v1.4.5
Видео
Идентификатор : 1
Формат : AVC
Формат/Информация : Advanced Video Codec
Профиль формата : High@L4
Параметр CABAC формата : Да
Параметр ReFrames формата : 5 кадров
Идентификатор кодека : V_MPEG4/ISO/AVC
Продолжительность : 1 ч. 56 м.
Битрейт : 4537 Кбит/сек
Ширина : 1920 пикселей
Высота : 806 пикселей
Соотношение сторон : 2,40:1
Режим частоты кадров : Постоянный
Частота кадров : 24,000 кадра/сек
Цветовое пространство : YUV
Субдискретизация насыщенности : 4:2:0
Битовая глубина : 8 бит
Тип развёртки : Прогрессивная
Бит/(Пиксели*Кадры) : 0.122
Размер потока : 3,69 Гбайт (97%)
Язык : Russian
Default : Да
Forced : Нет
Цветовой диапазон : Limited
Основные цвета : BT.709
Характеристики трансфера : BT.709
Коэффициенты матрицы : BT.709
Аудио
Идентификатор : 2
Формат : AAC
Формат/Информация : Advanced Audio Codec
Профиль формата : LC
Идентификатор кодека : A_AAC
Продолжительность : 1 ч. 56 м.
Битрейт : 127 Кбит/сек
Каналы : 2 канала
Расположение каналов : Front: L R
Частота : 48,0 КГц
Частота кадров : 46,875 кадров/сек (1024 spf)
Метод сжатия : С потерями
Размер потока : 106 Мбайт (3%)
Заголовок : iTunes
Язык : Russian
Default : Да
Forced : Нет
Меню
00:00:00.000 : en:Глава 1
00:06:27.875 : en:Глава 2
00:14:55.791 : en:Глава 3
00:21:56.999 : en:Глава 4
00:30:33.707 : en:Глава 5
00:39:25.707 : en:Глава 6
00:44:41.832 : en:Глава 7
00:50:49.790 : en:Глава 8
00:59:22.206 : en:Глава 9
01:06:45.664 : en:Глава 10
01:12:19.205 : en:Глава 11
01:18:51.788 : en:Глава 12
01:24:22.663 : en:Глава 13
01:31:26.538 : en:Глава 14
01:38:17.121 : en:Глава 15
01:44:48.746 : en:Глава 16
01:49:05.287 : en:Глава 17

Скриншоты

Скачать

Скачать бесплатно и на максимальной скорости!

Как скачивать? · Что такое торрент? · Рейтинг и ограничения




Вы не можете начинать темы
Вы не можете отвечать на сообщения
Вы не можете редактировать свои сообщения
Вы не можете удалять свои сообщения
Вы не можете голосовать в опросах
Вы не можете прикреплять файлы к сообщениям
Вы не можете скачивать файлы