Акварели / Серии: 1-16 из 16 (Алексей Карелин) [2018, мелодрама, WEBRip]


by Boris G ®
23-Дек-2018 15:27

[Цитировать]

Акварели / Серии: 1-16 из 16 (Алексей Карелин) [2018, мелодрама, WEBRip]

Акварели
Год выпуска: 2018
Производство: Filmstream, Vileton production
Жанр: мелодрама
Продолжительность: ~00:52:00 серия
Субтитры: нет
Режиссёр: Алексей Карелин
В ролях: Дарья Щербакова, Марина Могилевская, Илья Алексеев, Оксана Базилевич, Дмитрий Егоров, Игорь Денисов, Пётр Баранчеев, Олег Алмазов, Зоя Антонова, Марта Голубева
Описание: У Аси полностью стерто из памяти ее детство, случившаяся трагедия кардинально изменила судьбу. Новая жизнь началась в 11 лет, в скромной квартире с одинокой мамой Ирой. Мать посвятила себя воспитанию дочери и ее будущему благополучию. Теперь же Ася возвращает долг любимой женщине, решая финансовые проблемы и борясь с пагубным пристрастием женщины к алкоголю. Мимолетная встреча с Дмитрием перешла в серьезный роман. Поначалу он скрывает, что из состоятельной семьи. Их отношения приводят к тому, что она знакомится с богатой семьей своего возлюбленного, которые оберегают темные секреты, и она даже не может представить, что однажды ей самой было суждено стать главной тайной этой семьи. Вскоре девушка понимает, что ее появление там не было случайностью. Встреча с Димой невольно возвращает ее в прошлое и пересекает дорогу властной Регине, возглавляющей эту семью. Регина влюблена в парня и не в состоянии принять тот факт, что ее мужчина ухаживает за другой. Преисполненная ревности, она пойдет на все, чтобы разрушить роман Димы и Аси, и не позволить тайнам прошлого выйти на свет...

Реклама: Нет.
Кинопоиск
Все раздачи сериала
Sample
Качество: WEBRip - Files-x
Формат: AVI
Видео кодек: XviD
Аудио кодек: AC3
Видео: 720x400 (1.80:1), 25 fps, XviD build 73 ~1500 kbps avg, 0.208 bit/pixel
Аудио: 48.0 kHz, AC3 Dolby Digital, 2/0 (L,R) ch, ~ 192 kbps

Внимание! Раздача ведётся путём добавления новых серий

Раздача ведётся путём добавления новых серий, при каждом добавлении создаётся новый торрент. Чтобы начать докачку новой серии, пользователям необходимо сделать следующее:
- Остановить скачивание.
- Удалить старый торрент у себя из клиента (старые серии удалять не надо).
- Скачать новый торрент и запустить его у себя в клиенте вместо старого, при этом указать клиенту путь в старую папку куда и должно происходить скачивание новых серий.
Ваш клиент при этом должен произвести хеширование (проверку) старой папки (если не производит сам - помогите ему сделать это), и будет докачивать только те серии которых у вас ещё нет. Старые серии при этом не удаляются, а продолжают раздаваться!
Если вы уже удалили старые серии, то предотвратить повторную закачку старых серий можно, отжав галочку в соответствующих местах при запуске нового торрента. По возможности, желательно не удалять старые серии как можно дольше, чтобы релизер не столько продолжал раздавать старые серии, а смог сконцентрироваться на новых.

MI

General
Complete name : D:\Акварели..2018.WEB-DLRip.Files-x\01.Акварели..2018.WEB-DLRip.Files-x.avi
Format : AVI
Format/Info : Audio Video Interleave
File size : 639 MiB
Duration : 52mn 33s
Overall bit rate : 1 701 Kbps
Writing application : VirtualDubMod 1.5.10.3 | www.virtualdub-fr.org || (build 2550/release)
Writing library : VirtualDubMod build 2550/release
Video
ID : 0
Format : MPEG-4 Visual
Format profile : Advanced Simple@L5
Format settings, BVOP : 1
Format settings, QPel : No
Format settings, GMC : No warppoints
Format settings, Matrix : Custom
Codec ID : XVID
Codec ID/Hint : XviD
Duration : 52mn 33s
Bit rate : 1 499 Kbps
Width : 720 pixels
Height : 400 pixels
Display aspect ratio : 16:9
Frame rate : 25.000 fps
Color space : YUV
Chroma subsampling : 4:2:0
Bit depth : 8 bits
Scan type : Progressive
Compression mode : Lossy
Bits/(Pixel*Frame) : 0.208
Stream size : 563 MiB (88%)
Writing library : XviD 73
Audio
ID : 1
Format : AC-3
Format/Info : Audio Coding 3
Mode extension : CM (complete main)
Format settings, Endianness : Big
Codec ID : 2000
Duration : 52mn 33s
Bit rate mode : Constant
Bit rate : 192 Kbps
Channel count : 2 channels
Channel positions : Front: L R
Sampling rate : 48.0 KHz
Bit depth : 16 bits
Compression mode : Lossy
Stream size : 72.2 MiB (11%)
Alignment : Split accross interleaves
Interleave, duration : 40 ms (1.00 video frame)
Interleave, preload duration : 500 ms

Скриншоты


Скачать

Скачать бесплатно и на максимальной скорости!

Как скачивать? · Что такое торрент? · Рейтинг и ограничения




Вы не можете начинать темы
Вы не можете отвечать на сообщения
Вы не можете редактировать свои сообщения
Вы не можете удалять свои сообщения
Вы не можете голосовать в опросах
Вы не можете прикреплять файлы к сообщениям
Вы не можете скачивать файлы