Ёлки 5 (Тимур Бекмамбетов, Вадим Перельман, Индар Джендубаев) [2016, Россия, семейный, комедия, WEB-DL 1080p] Original Rus


Размер:  3.02 GB   |    Зарегистрирован:  4 месяца 22 дня   |    Скачан:  0 раз

Полного источника не было: Никогда

by Virtuoz ®
26-Мар-2018 05:24

[Цитировать]

Ёлки 5 (Тимур Бекмамбетов, Вадим Перельман, Индар Джендубаев) [2016, Россия, семейный, комедия, WEB-DL 1080p] Original Rus

Ёлки 5 Страна: Россия
Студия: Базелевс Продакшн
Жанр: Семейный, комедия
Год выпуска: 2016
Продолжительность: 01:27:43
Перевод: Не требуется iTunes
Субтитры: нет
Оригинальная аудиодорожка: русский
Режиссер: Тимур Бекмамбетов, Вадим Перельман, Индар Джендубаев
В ролях: Иван Ургант, Сергей Светлаков, Гоша Куценко, Мария Шукшина, Александр Головин, Анна Хилькевич, Александр Домогаров мл., Кирилл Плетнёв, Александр Робак, Анастасия Сметанина
Описание: В этот новый год любимые герои «Ёлок» всё также делают глупости и надеются на чудо. Боре нужно как-то восстановить семейное счастье и ради этого он готов украсть у лучшего друга Жени пингвина. Лыжник и Сноубордист, так и не повзрослевшие, устраивают сумасшедшую погоню за ёлкой. Баба Маня осваивает интернет в надежде найти старую любовь. Профессор из Екатеринбурга остепенился, но теперь сам сходит с ума от ревности. На далеком Севере инженер по технике безопасности должен рискнуть и, наконец, признаться в любви. Ну а пингвину просто очень нужно сесть на яйцо…
Сэмпл: https://cloud.mail.ru/public/M8cn/iqymJ2HjR
Тип релиза: WEB-DL 1080p
Контейнер: MKV
Видео: MPEG-4 AVC, 4541 Кбит/с, 1920x804, 24,000 fps
Аудио: Rus, AC3, 384 kb/s (6 ch), 48 kHz

MediaInfo

Общее
Уникальный идентификатор : 182338226031926966333817172223575359968 (0x892D10A0B3F9C3C59A3AAA728D5A81E0)
Полное имя : YOLKI5_WEB_DL_1080p.mkv
Формат : Matroska
Версия формата : Version 2
Размер файла : 3,02 Гбайт
Продолжительность : 1 ч. 27 м.
Общий поток : 4927 Кбит/сек
Дата кодирования : UTC 2017-01-19 19:08:26
Программа кодирования : mkvmerge v8.3.0 ('Over the Horizon') 64bit
Библиотека кодирования : libebml v1.3.1 + libmatroska v1.4.2
Видео
Идентификатор : 1
Формат : AVC
Формат/Информация : Advanced Video Codec
Профиль формата : High@L4
Параметр CABAC формата : Да
Параметр ReFrames формата : 5 кадров
Идентификатор кодека : V_MPEG4/ISO/AVC
Продолжительность : 1 ч. 27 м.
Битрейт : 4541 Кбит/сек
Ширина : 1920 пикселей
Высота : 804 пикселя
Соотношение сторон : 2,40:1
Режим частоты кадров : Постоянный
Частота кадров : 24,000 кадра/сек
Цветовое пространство : YUV
Субдискретизация насыщенности : 4:2:0
Битовая глубина : 8 бит
Тип развёртки : Прогрессивная
Бит/(Пиксели*Кадры) : 0.123
Размер потока : 2,78 Гбайт (92%)
Язык : English
Default : Да
Forced : Нет
Цветовой диапазон : Limited
Основные цвета : BT.709
Характеристики трансфера : BT.709
Коэффициенты матрицы : BT.709
Аудио
Идентификатор : 2
Формат : AC-3
Формат/Информация : Audio Coding 3
Расширение режима : CM (complete main)
Параметр Endianness формата : Big
Идентификатор кодека : A_AC3
Продолжительность : 1 ч. 27 м.
Вид битрейта : Постоянный
Битрейт : 384 Кбит/сек
Каналы : 6 каналов
Расположение каналов : Front: L C R, Side: L R, LFE
Частота : 48,0 КГц
Частота кадров : 31,250 кадров/сек (1536 spf)
Метод сжатия : С потерями
Размер потока : 241 Мбайт (8%)
Язык : Russian
Default : Да
Forced : Нет
Меню
00:00:00.000 : en:Глава 1
00:07:08.625 : en:Глава 2
00:13:22.541 : en:Глава 3
00:20:30.624 : en:Глава 4
00:27:00.790 : en:Глава 5
00:35:22.956 : en:Глава 6
00:42:35.039 : en:Глава 7
00:50:20.872 : en:Глава 8
00:56:38.205 : en:Глава 9
01:03:33.496 : en:Глава 10
01:10:50.079 : en:Глава 11
01:17:48.287 : en:Глава 12

Скриншоты




Вы не можете начинать темы
Вы не можете отвечать на сообщения
Вы не можете редактировать свои сообщения
Вы не можете удалять свои сообщения
Вы не можете голосовать в опросах
Вы не можете прикреплять файлы к сообщениям
Вы можете скачивать файлы