Взломать блогеров (Максим Свешников) [2016, Россия, комедия, WEB-DL 720p]


by Virtuoz ®
26-Мар-2018 08:24

[Цитировать]

Взломать блогеров (Максим Свешников) [2016, Россия, комедия, WEB-DL 720p]

Взломать блогеров
Страна: Россия
Жанр: Комедия
Год выпуска: 2016
Продолжительность: 01:07:00
Перевод: Не требуется
Субтитры: нет
Оригинальная аудиодорожка: русский
Режиссер: Максим Свешников
В ролях: Саша Спилберг, Иван Гай, Марьяна Ро, Юлия Пушман, Ян Гордиенко, Карина Каспарянц
Описание: Звездные блогеры рунета: Саша Спилберг, Ивангай и Марьяна Ро были «взломаны» неизвестным вирусом и перенеслись на «рабочие столы» своих компьютеров в виде анимационных героев. Под угрозой отношения Вани и Марьяны, карьера Саши и аккаунты миллионов их фанатов. Кто вторгся в их аккаунты и завладел всеми данными? Как вернуться в привычную онлайн-жизнь? Пошел обратный отсчет — ребята должны вырваться из цифровой ловушки.
Релиз от:

Сэмпл: http://multi-up.com/1136147
Тип релиза: WEB-DL 720p
Контейнер: MKV
Видео: 1280x720 at 24.000 fps (True24p), MPEG-4 AVC, ~4000 kbps avg
Аудио: 48 kHz, AC3, 3/2 (L,C,R,l,r) + LFE ch, ~384.00 kbps avg

MediaInfo

Формат : Matroska
Версия формата : Version 2
Размер файла : 2,05 Гбайт
Продолжительность : 1 ч. 7 м.
Общий поток : 4377 Кбит/сек
Название фильма : Vzlomat blogerov (2016) - Release for HDCLUB
Дата кодирования : UTC 2017-01-10 10:28:27
Программа кодирования : mkvmerge v3.4.0 ('Rapunzel') built on May 15 2010 09:38:20
Библиотека кодирования : libebml v0.8.0 + libmatroska v0.9.0
Видео
Идентификатор : 1
Формат : AVC
Формат/Информация : Advanced Video Codec
Профиль формата : High@L3.1
Параметр CABAC формата : Нет
Параметр ReFrames формата : 2 кадра
Идентификатор кодека : V_MPEG4/ISO/AVC
Продолжительность : 1 ч. 7 м.
Битрейт : 3906 Кбит/сек
Ширина : 1280 пикселей
Высота : 720 пикселей
Соотношение сторон : 16:9
Режим частоты кадров : Постоянный
Частота кадров : 24,000 кадра/сек
Цветовое пространство : YUV
Субдискретизация насыщенности : 4:2:0
Битовая глубина : 8 бит
Тип развёртки : Прогрессивная
Бит/(Пиксели*Кадры) : 0.177
Размер потока : 1,83 Гбайт (89%)
Заголовок : Vzlomat blogerov (2016) - Release for HDCLUB
Язык : Russian
Default : Да
Forced : Нет
Цветовой диапазон : Limited
Основные цвета : BT.709
Характеристики трансфера : BT.709
Коэффициенты матрицы : BT.709
Аудио
Идентификатор : 2
Формат : AC-3
Формат/Информация : Audio Coding 3
Расширение режима : CM (complete main)
Параметр Endianness формата : Big
Идентификатор кодека : A_AC3
Продолжительность : 1 ч. 7 м.
Вид битрейта : Постоянный
Битрейт : 384 Кбит/сек
Каналы : 6 каналов
Расположение каналов : Front: L C R, Side: L R, LFE
Частота : 48,0 КГц
Частота кадров : 31,250 кадров/сек (1536 spf)
Метод сжатия : С потерями
Размер потока : 184 Мбайт (9%)
Заголовок : AC3 5.1 @ 384 kbps
Язык : Russian
Default : Да
Forced : Нет
Меню
00:00:00.000 : en:1
00:07:38.458 : en:2
00:13:39.624 : en:3
00:20:34.999 : en:4
00:27:11.999 : en:5
00:34:20.082 : en:6
00:42:05.415 : en:7
00:48:58.540 : en:8
00:56:10.498 : en:9

Скриншоты

Скачать

Скачать бесплатно и на максимальной скорости!

Как скачивать? · Что такое торрент? · Рейтинг и ограничения




Вы не можете начинать темы
Вы не можете отвечать на сообщения
Вы не можете редактировать свои сообщения
Вы не можете удалять свои сообщения
Вы не можете голосовать в опросах
Вы не можете прикреплять файлы к сообщениям
Вы не можете скачивать файлы