Ночь одинокого филина (Галина Сальгарелли) [2012, Россия, комедия, семейный, HDTV 1080i]


Размер:  5.29 GB   |    Зарегистрирован:  4 месяца 22 дня   |    Скачан:  0 раз
Сидов:  1  [  0 KB/s  ]   Подробная статистика пиров
by Virtuoz ®
26-Мар-2018 05:24

[Цитировать]

Ночь одинокого филина (Галина Сальгарелли) [2012, Россия, комедия, семейный, HDTV 1080i]

Ночь одинокого филина
Страна: США
Студия: ОДА-Фильм, Киностудия «РОСТ», Мосфильм
Жанр: Комедия, семейный
Год выпуска: 2012
Продолжительность: 01:30:07
Субтитры: нет
Оригинальная аудиодорожка: Русский
Режиссер: Галина Сальгарелли
В ролях: Ольга Погодина, Андрей Чернышов, Татьяна Кравченко, Андрей Градов, Михаил Химичев, Анна Антонова, Иван Кожевников, Павел Ремезов, Галина Стаханова, Бронислава Захарова, Елена Дубровская, Владимир Епископосян, Захар Ронжин, Вадим Гаман, Жером Кустийас, Прохор Зикора, Алексей Гущин, Елена Котельникова, Магомед Зурабов, Григорий Каганович, Валентина Абрамова, Александр Копылов, Анатолий Калмыков, Евгений Арзамасцев
Описание: Лирическая комедия о новогодних чудесах. Накануне Нового года владелец ресторана Вадим Михайлович устроил проверку для своих сотрудников, по факту которой была уволена шеф-повар Аня. Таким образом, новогодний корпоратив превратился в грустные проводы. Тем не менее, все сотрудники поехали в загородный дом, где должен был состояться праздник. Однако в пути герои заблудились и оказались в небольшой лесной избушке. Сюда же невиданными тропами прибывает и Вадим Михайлович. Новый год дарит героям чудесную возможность исправить все прошлые ошибки перед наступлением следующего жизненного этапа.
Дополнительная информация:
Автор релиза -
Моя запись с канала Первый HD от 14.01.2017
В оригинальном потоке звук псевдо-объёмный AC3 5.1 384 kbps - четыре канала из шести оказались пустыми, поэтому аудио-дорожка была перекодирована в AC3 2.0 384 kbps с использованием eac3to и Sony Vegas

Сэмпл: https://yadi.sk/i/6-A5rSWv38uqJd
Качество видео: HDTV 1080i
Формат видео: TS
Видео: MPEG-4, 1920x1080, 25.000 fps, 7606 kbps
Аудио: Русский AC3, 48000 Гц, 2ch, 384 kbps

MediaInfo

General
ID : 1 (0x1)
Complete name : Ночь.одинокого.филина.2012.HDTV.1080i-ylnian.ts
Format : MPEG-TS
File size : 5.29 GiB
Duration : 1 h 30 min
Overall bit rate mode : Variable
Overall bit rate : 8 409 kb/s
Maximum Overall bit rate : 35.5 Mb/s
Video
ID : 4113 (0x1011)
Menu ID : 1 (0x1)
Format : AVC
Format/Info : Advanced Video Codec
Format profile : High@L4
Format settings, CABAC : Yes
Format settings, ReFrames : 4 frames
Codec ID : 27
Duration : 1 h 30 min
Bit rate mode : Variable
Bit rate : 7 606 kb/s
Maximum bit rate : 40.0 Mb/s
Width : 1 920 pixels
Height : 1 080 pixels
Display aspect ratio : 16:9
Frame rate : 25.000 FPS
Color space : YUV
Chroma subsampling : 4:2:0
Bit depth : 8 bits
Scan type : Interlaced
Scan type, store method : Separated fields
Scan order : Top Field First
Bits/(Pixel*Frame) : 0.147
Stream size : 4.79 GiB (90%)
Color range : Limited
Color primaries : BT.709
Transfer characteristics : BT.709
Matrix coefficients : BT.709
Audio
ID : 4352 (0x1100)
Menu ID : 1 (0x1)
Format : AC-3
Format/Info : Audio Coding 3
Mode extension : CM (complete main)
Format settings, Endianness : Big
Codec ID : 129
Duration : 1 h 30 min
Bit rate mode : Constant
Bit rate : 384 kb/s
Channel(s) : 2 channels
Channel positions : Front: L R
Sampling rate : 48.0 kHz
Frame rate : 31.250 FPS (1536 spf)
Bit depth : 16 bits
Compression mode : Lossy
Delay relative to video : -40 ms
Stream size : 248 MiB (5%)
Language : Russian

Скриншот c названием фильма




Вы не можете начинать темы
Вы не можете отвечать на сообщения
Вы не можете редактировать свои сообщения
Вы не можете удалять свои сообщения
Вы не можете голосовать в опросах
Вы не можете прикреплять файлы к сообщениям
Вы можете скачивать файлы