Родные люди / Серии: 1-8 из 8 (Алексей Царев) [2018, мелодрама, SATRip-AVC]


by Boris G ®
23-Дек-2018 15:27

[Цитировать]

Родные люди / Серии: 1-8 из 8 (Алексей Царев) [2018, мелодрама, SATRip-AVC]

Родные люди
- Год выпуска: 2018
Страна: Россия | Кинокомпнаия «Щука»
Жанр: мелодрама
Продолжительность: 00:51:00
Субтитры: нет- Режиссёр: Алексей Царев
В ролях:Ирина Розанова, Андрей Ильин, Мария Машкова, Варвара Бородина, Игнатий Акрачков, Андрей Феськов, Артём Ткаченко, Семён Шкаликов, Наталия Вдовина, Ольга Дибцева, Александр Андриенко, Андрей Забара, Дарья Петриченко, Анастасия Королькова, Михаил Стародубов, Владимир Антоник, Татьяна Орлова, Илья Бледный, Анна Потебня, Сергей Холмогоров, Александр Назаров , Сергей Медведев, Александр Водопьянов, Юлия Полубинская- Описание:
Галина, сильная женщина, капитан огромного морского судна, мать двух взрослых дочерей. Бурные девяностые годы поломали немало людских судеб. Развели они по разным жизненным дорогам и Галину с Сергеем. Некогда любившие друг друга родные люди, разлетелись по разным частям света.Галине пришлось одной поднимать на ноги и растить двух замечательных дочек.Теперь, спустя годы, у нее есть не совсем женская, но любимая работа, есть ее нежно любимые девочки - Рита, младшая Светка и внучка Танюха. Спустя долгие годы, благодаря стечению обстоятельств, Сергей Александрович находит свою семью в Москве.-
[box=#00db6a,#000000]Все раздачи сериала[/box]-- Качество: SATRip-AVC
Формат: MKV
Видео кодек: H.264
Аудио кодек: AC3
Видео: MPEG4 Video (H264), 720x400, 25fps,1700 Kbps,bit/pixel 0.236
Аудио : AC3 48000Hz, stereo, 192 kbps,2 ch
Реклама отсутствует

MediaInfo

Общее
Уникальный идентификатор : 254165417010632877078450040387779451635 (0xBF367A8F05AB05FBA76CCDDC9AC45AF3)
Полное имя : E:\Родные люди\01 серия_Родные люди_rip by_Aleksan55.mkv
Формат : Matroska
Версия формата : Version 2
Размер файла : 697 Мбайт
Продолжительность : 51 м. 28 с.
Общий поток : 1894 Кбит/сек
Дата кодирования : UTC 2018-09-09 09:19:01
Программа кодирования : mkvmerge v7.8.0 ('River Man') 32bit built on Apr 3 2015 12:11:22
Библиотека кодирования : libebml v1.3.1 + libmatroska v1.4.2
Видео
Идентификатор : 1
Формат : AVC
Формат/Информация : Advanced Video Codec
Профиль формата : High@L4.1
Параметр CABAC формата : Да
Параметр ReFrames формата : 14 кадров
Идентификатор кодека : V_MPEG4/ISO/AVC
Продолжительность : 51 м. 28 с.
Битрейт : 1700 Кбит/сек
Ширина : 720 пикселей
Высота : 400 пикселей
Соотношение сторон : 16:9
Режим частоты кадров : Постоянный
Частота кадров : 25,000 кадров/сек
Цветовое пространство : YUV
Субдискретизация насыщенности : 4:2:0
Битовая глубина : 8 бит
Тип развёртки : Прогрессивная
Бит/(Пиксели*Кадры) : 0.236
Размер потока : 613 Мбайт (88%)
Библиотека кодирования : x264 core 146 r2538 121396c
Настройки программы : cabac=1 / ref=14 / deblock=1:-1:-1 / analyse=0x3:0x133 / me=umh / subme=9 / psy=1 / psy_rd=0.90:0.15 / mixed_ref=0 / me_range=32 / chroma_me=1 / trellis=2 / 8x8dct=1 / cqm=0 / deadzone=21,11 / fast_pskip=1 / chroma_qp_offset=-3 / threads=12 / lookahead_threads=1 / sliced_threads=0 / nr=0 / decimate=0 / interlaced=0 / bluray_compat=0 / constrained_intra=0 / bframes=14 / b_pyramid=2 / b_adapt=1 / b_bias=0 / direct=3 / weightb=1 / open_gop=0 / weightp=2 / keyint=250 / keyint_min=25 / scenecut=40 / intra_refresh=0 / rc_lookahead=40 / rc=2pass / mbtree=1 / bitrate=1700 / ratetol=1.0 / qcomp=0.60 / qpmin=0 / qpmax=39 / qpstep=4 / cplxblur=20.0 / qblur=0.5 / ip_ratio=1.40 / aq=1:1.00
Default : Да
Forced : Нет
Цветовой диапазон : Limited
Основные цвета : BT.601 PAL
Характеристики трансфера : BT.470 System B, BT.470 System G
Коэффициенты матрицы : BT.601
Аудио
Идентификатор : 2
Формат : AC-3
Формат/Информация : Audio Coding 3
Расширение режима : CM (complete main)
Параметр Endianness формата : Big
Идентификатор кодека : A_AC3
Продолжительность : 51 м. 28 с.
Вид битрейта : Постоянный
Битрейт : 192 Кбит/сек
Каналы : 2 канала
Расположение каналов : Front: L R
Частота : 48,0 КГц
Частота кадров : 31,250 кадров/сек (1536 spf)
Битовая глубина : 16 бит
Метод сжатия : С потерями
Размер потока : 70,7 Мбайт (10%)
Default : Да
Forced : Нет :

Скриншоты

Скачать

Скачать бесплатно и на максимальной скорости!

Как скачивать? · Что такое торрент? · Рейтинг и ограничения




Вы не можете начинать темы
Вы не можете отвечать на сообщения
Вы не можете редактировать свои сообщения
Вы не можете удалять свои сообщения
Вы не можете голосовать в опросах
Вы не можете прикреплять файлы к сообщениям
Вы не можете скачивать файлы