Тучи над холмами / Saka no ue no kumo (Такаши Исшики, Такеши Шибата / Takashi Isshiki, Takeshi Shibata) (13 из 13) [RUS (int)] [Япония, 2009-2011, Военный, драма, исторический, DVDRip]


by Boris G ®
23-Дек-2018 15:28

[Цитировать]

Тучи над холмами / Saka no ue no kumo (Такаши Исшики, Такеши Шибата / Takashi Isshiki, Takeshi Shibata) (13 из 13) [RUS (int)] [Япония, 2009-2011, Военный, драма, исторический, DVDRip]

Тучи над холмами (13 серий из 13) / Saka no ue no kumo
Страна: Япония
Жанр: Военный, драма, исторический
Год выпуска: 2009-2011
Продолжительность: 13 х ~ 01:29:18
Перевод: Авторский (одноголосый закадровый) А. Дольский
Субтитры: Японские
Режиссер: Такаши Исшики, Такеши Шибата / Takashi Isshiki, Takeshi Shibata
В ролях: Широ Ито, Такако Мацу, Юкиёси Одзава, Кейко Такешита, Кенджи Ватанабе, Хироши Абе, Олегар Федоро, Эндрю Форбс, Такахиро Фуджимото, Джулиан Гловер, Марина Александрова, Александр Иванов, Артем Григорьев.
Описание: Совместный русско-японский проект, идея которого зародилась в Японии в связи с 105-летием русско-японской войны 1904-1905 гг. Производством сериала занималась японская телевизионная корпорация NHK, и в нем приняли участие как японские, так и российские актеры. Русско-японская война не является популярной темой в российском кино, и это вполне понятно, поскольку ее результаты были сочтены позором для Российской империи, которая не смогла справиться с достаточно скромной в то время Японией. Однако японцы всегда относились серьезно к своей истории, тем более, что это была единственная победоносная война с европейским государством. В основу сериала лег роман известного японского писателя-историка Сиба Рётаро под названием «Тучи над холмами». Действие сериала разворачивается во времена эпохи Мэйдзи - бурного периода модернизации Японии второй половины XIX - начала XX вв. - и посвящено судьбам двух японских военных, братьев Акияма: Санэюки и Ёсифуру, принимавших участие в русско-японской войне 1904–1905 гг. При этом они показаны отнюдь не гениальными или особо одаренными людьми, а, напротив, вполне обыкновенными жителями своей страны, которые благодаря патриотизму и упорству добиваются своих целей. Особое место в сериале занимает сюжетная линия, героями которой стали японский морской офицер Хиросэ Такэо и петербургская аристократка Ариадна (ее роль исполняет Марина Александрова). Это история любви людей двух разных культур, разделенных многими тысячами верст, а после начала военных действий еще и оказавшихся по разные стороны фронта...
Список серий:
01. Юность нации / Shonen no kuni-2009
02. Великие амбиции / Sei-un-2009
03. Взбудораженная нация / Kokka Meido-2009
04. Китайско-японская война / Nisshin Kaisen-2009
05. Студент по обмену / Ryugakusei-2009
06. Англо-японский альянс / Nichiei doumei-2010
07. Смерть Шики / Shiki, iku-2010
08. Развязывание Русско-японской войны / Nichiro kaisen-2010
09. Смерть Хироси / Hirose, shisu-2010
10. Всеобщая атака на Порт-Артур / Ryojun so-ko-geki-2011
11. Высота 203 метра / 203 kochi-2011
12. Прибытие вражеского флота / Tekikan Miyu-2011
13. Битва при Цусиме / Nihon Kai Kaisen-2011
Доп. информация: DVDRip by alf62
Большое СПАСИБО за работу над диском целому коллективу:
За перевод и озвучивание - А. Дольскому
За финансовое содействие по переводу и озвучиванию: MeGUI, KpucTo161, feldeger, Guyver, dunhill200, AVO-Detector, zweryga, ZeRoNe, WhiteHorse, aleksandrn70, Dr. Destructo, dedmozor
За наложение чистого голоса на оригинальную звуковую дорожку и синхронизацию - Нордер
За первоисточник DVDAvallac'h и alinto: http://rutracker.org/forum/viewtopic.php?t=4322585
В 12 серии нет перевода 00:24:13,018 - 00:24:41,447 (версия на диске длиннее на этот эпизод)
Сэмпл: http://multi-up.com/842927
Качество видео: DVDRip
Формат видео: AVI
Видео: 720x400 (1.80:1), 29.970 fps, XviD build 64 ~2067 kbps avg, 0.24 bit/pixel
Аудио: 48 kHz, AC3 Dolby Digital, 2/0 (L,R) ch, ~192.00 kbps avg
Формат субтитров: hardsub (неотключаемые)
Доп. информация о субтитрах: только при русской речи

MediaInfo

\Rutracker.org\Тучи над холмами\Tuchi.nad.holmami.(13.serij.iz.13).2009-2011.DVDRip.by.alf62\Tuchi.nad.holmami.(01.serija.iz.13).Junost.nacii.2009-2011.DivX.DVDRip.avi
Format : AVI
Format/Info : Audio Video Interleave
File size : 1.42 GiB
Duration : 1h 29mn
Overall bit rate : 2 271 Kbps
Writing application : VirtualDubMod 1.5.10.3 | www.virtualdub-fr.org || (build 2550/release)
Writing library : VirtualDub build 35390/release
Video
ID : 0
Format : MPEG-4 Visual
Format profile : Advanced Simple@L5
Format settings, BVOP : 2
Format settings, QPel : No
Format settings, GMC : No warppoints
Format settings, Matrix : Default (MPEG)
Codec ID : DX50
Codec ID/Hint : DivX 5
Duration : 1h 29mn
Bit rate : 2 068 Kbps
Width : 720 pixels
Height : 400 pixels
Display aspect ratio : 16:9
Frame rate : 29.970 fps
Color space : YUV
Chroma subsampling : 4:2:0
Bit depth : 8 bits
Scan type : Progressive
Compression mode : Lossy
Bits/(Pixel*Frame) : 0.240
Stream size : 1.29 GiB (91%)
Writing library : XviD 64
Audio
ID : 1
Format : AC-3
Format/Info : Audio Coding 3
Mode extension : CM (complete main)
Format settings, Endianness : Big
Codec ID : 2000
Duration : 1h 29mn
Bit rate mode : Constant
Bit rate : 192 Kbps
Channel(s) : 2 channels
Channel positions : Front: L R
Sampling rate : 48.0 KHz
Bit depth : 16 bits
Compression mode : Lossy
Stream size : 123 MiB (8%)
Alignment : Aligned on interleaves
Interleave, duration : 33 ms (1.00 video frame)
Interleave, preload duration : 512 ms

Скриншот c названием фильма

Скачать

Скачать бесплатно и на максимальной скорости!

Как скачивать? · Что такое торрент? · Рейтинг и ограничения




Вы не можете начинать темы
Вы не можете отвечать на сообщения
Вы не можете редактировать свои сообщения
Вы не можете удалять свои сообщения
Вы не можете голосовать в опросах
Вы не можете прикреплять файлы к сообщениям
Вы не можете скачивать файлы