Сухарь / Серии: 1-4 из 4 (Валентин Донсков) [2018, Мелодрама, WEBRip]


by Boris G ®
23-Дек-2018 15:27

[Цитировать]

Сухарь / Серии: 1-4 из 4 (Валентин Донсков) [2018, Мелодрама, WEBRip]

Сухарь- Год выпуска: 2018
Производство: Кинокомпания «Русское»
Жанр: Мелодрама
Продолжительность: 00:45:00
Субтитры: нет
Режиссёр: Валентин Донсков
В ролях: Анна Невская, Евгений Миллер, Дмитрий Зеничев, Артём Фадеев, Николай Шатохин, Надя Славецкая, Александр Чернявский (III), Вероника Корниенко, Владислав Миллер, Константин Карасик, Ольга Цинк, Екатерина Седик, Константин Богданов, Рубен Тигранян, Александр Печенин, Марина Доможирова, Игорь Скурихин
Описание: На первый взгляд у Надежды (Анна Невская) счастливая семья: любящий муж Олег (Дмитрий Зеничев) и сын-подросток Витя (Артем Фадеев). Но пока она всю себя отдает семье, муж крутит роман с женой начальника. Но обман не может длиться вечно – начальник узнает правду и Олега увольняют с работы. Боясь из-за долгов потерять квартиру, Надя решается выйти на работу, ведь по образованию она архитектор, как и ее муж. Так Надя оказывается на стройке вместе с бригадой строителей, которые сразу же дают ей прозвище Сухарь. Несмотря на недовольство рабочих, и в особенности прораба Юрия (Евгений Миллер), Надя пытается контролировать каждый этап строительства. Она не знает, что богатая заказчица Алла затеяла стройку только ради того, чтобы быть поближе к Юрию. И Надя своим появлением лишь подливает масла в огонь…-Сэмпл: http://multi-up.com/1209057-Доп. информация: Серии склеены, две в одну. 1 файл - 2 серии, 2 файла 4 серии.-Качество: WEBRip
Формат: AVI
Видео кодек: XviD
Аудио кодек: AC3
Видео: 720x400 (16:9), 25.000 fps, XviD build 73, 1959 Kbps, 0.27 Bits/Pixel
Аудио: 48 kHz, AC3 Dolby Digital, 2 ch, 192 Kbps-Релиз группа: -Реклама: Нет-

MI

General
Complete name : Downloads\Сухарь (2018). WEB-DLRip.Files-x\1.Сухарь (2018). WEB-DLRip.Files-x.avi
Format : AVI
Format/Info : Audio Video Interleave
File size : 1.37 GiB
Duration : 1h 30mn
Overall bit rate : 2 161 Kbps
Writing application : VirtualDubMod 1.5.10.3 | www.virtualdub-fr.org || (build 2550/release)
Writing library : VirtualDubMod build 2550/release
Video #0
ID : 0
Format : MPEG-4 Visual
Format profile : Advanced Simple@L5
Format settings, BVOP : 1
Format settings, QPel : No
Format settings, GMC : No warppoints
Format settings, Matrix : Custom
Codec ID : XVID
Codec ID/Hint : XviD
Duration : 1h 30mn
Bit rate : 1 959 Kbps
Width : 720 pixels
Height : 400 pixels
Display aspect ratio : 16:9
Frame rate : 25.000 fps
Color space : YUV
Chroma subsampling : 4:2:0
Bit depth : 8 bits
Scan type : Progressive
Compression mode : Lossy
Bits/(Pixel*Frame) : 0.272
Stream size : 1.24 GiB (91%)
Writing library : XviD 73
Audio #1
ID : 1
Format : AC-3
Format/Info : Audio Coding 3
Mode extension : CM (complete main)
Format settings, Endianness : Big
Codec ID : 2000
Duration : 1h 30mn
Bit rate mode : Constant
Bit rate : 192 Kbps
Channel(s) : 2 channels
Channel positions : Front: L R
Sampling rate : 48.0 KHz
Bit depth : 16 bits
Compression mode : Lossy
Stream size : 125 MiB (9%)
Alignment : Split accross interleaves
Interleave, duration : 40 ms (1.00 video frame)
Interleave, preload duration : 500 ms

Скриншоты

Предыдущие и альтернативные раздачи
Скачать

Скачать бесплатно и на максимальной скорости!

Как скачивать? · Что такое торрент? · Рейтинг и ограничения




Вы не можете начинать темы
Вы не можете отвечать на сообщения
Вы не можете редактировать свои сообщения
Вы не можете удалять свои сообщения
Вы не можете голосовать в опросах
Вы не можете прикреплять файлы к сообщениям
Вы не можете скачивать файлы