Хороший мальчик (Оксана Карас) [2016, Россия, комедия, WEB-DL 1080p]


by Virtuoz ®
26-Мар-2018 08:24

[Цитировать]

Хороший мальчик (Оксана Карас) [2016, Россия, комедия, WEB-DL 1080p]

Хороший мальчик- Год выпуска: 2016
Выпущено: Россия
Жанр: комедия
Продолжительность: 01:35:07
Субтитры: нет-Режиссер: Оксана Карас
В ролях: Семен Трескунов, Константин Хабенский, Михаил Ефремов, Александр Паль, Анастасия Богатырева, Василий Буткевич, Иева Андреевайте, Ирина Денисова, Татьяна Догилева, Ирина Пегова
О фильме: Обычная, казалось бы, неделя из жизни ничем не примечательного школьника Коли Смирнова превращается в череду невероятных происшествий: Коля влюбляется в учительницу английского, кто-то поджигает школьную пристройку с новыми компьютерами, а папа Коли заявляет семье о необходимости отказа от ночного сна, из-за чего никому в доме не удается выспаться и собраться с мыслями. Вдобавок в самого Колю влюбляется дочка директора, старшеклассница Ксюша, решившая, что это именно он поджёг школу. Остаётся всего несколько дней до субботнего праздника школы, где должны встретиться все действующие лица этого водоворота событий, и теперь хорошему мальчику Коле необходимо успеть разобраться со своей личной жизнью, расследовать поджог и наладить взаимоотношения с родителями.
Релиз:
Тип релиза: 1080p WEB-DL
Формат: MKV
Видео: 1920x856 at 24.000 fps (True24p), MPEG-4 AVC, ~4792 kbps avg
Аудио: Russian: 48 kHz, AC3, 3/2 (L,C,R,l,r) + LFE ch, ~384.00 kbps avg
Семпл-

Кадры из фильма

-

mInfo

Формат : Matroska
Версия формата : Version 2
Размер файла : 3,51 Гбайт
Продолжительность : 1 ч. 35 м.
Общий поток : 5281 Кбит/сек
Название фильма : The Good Boy (2016) - Release for HDCLUB
Дата кодирования : UTC 2016-12-21 19:58:27
Программа кодирования : mkvmerge v3.4.0 ('Rapunzel') built on May 15 2010 09:38:20
Библиотека кодирования : libebml v0.8.0 + libmatroska v0.9.0
Видео
Идентификатор : 1
Формат : AVC
Формат/Информация : Advanced Video Codec
Профиль формата : High@L4.0
Параметр CABAC формата : Да
Параметр ReFrames формата : 5 кадров
Идентификатор кодека : V_MPEG4/ISO/AVC
Продолжительность : 1 ч. 35 м.
Битрейт : 4792 Кбит/сек
Ширина : 1920 пикселей
Высота : 856 пикселей
Соотношение сторон : 2,25:1
Режим частоты кадров : Постоянный
Частота кадров : 24,000 кадра/сек
Цветовое пространство : YUV
Субдискретизация насыщенности : 4:2:0
Битовая глубина : 8 бит
Тип развёртки : Прогрессивная
Бит/(Пиксели*Кадры) : 0.121
Размер потока : 3,18 Гбайт (91%)
Заголовок : The Good Boy (2016) - Release for HDCLUB
Язык : Russian
Default : Да
Forced : Нет
Основные цвета : BT.709
Характеристики трансфера : BT.709
Коэффициенты матрицы : BT.709
colour_range : Limited
Аудио
Идентификатор : 2
Формат : AC-3
Формат/Информация : Audio Coding 3
Расширение режима : CM (complete main)
Параметр Endianness формата : Big
Идентификатор кодека : A_AC3
Продолжительность : 1 ч. 35 м.
Вид битрейта : Постоянный
Битрейт : 384 Кбит/сек
Каналы : 6 каналов
Расположение каналов : Front: L C R, Side: L R, LFE
Частота : 48,0 КГц
Битовая глубина : 16 бит
Метод сжатия : С потерями
Размер потока : 261 Мбайт (7%)
Заголовок : AC3 5.1 @ 384 kbps
Язык : Russian
Default : Да
Forced : Нет
Меню
00:00:00.000 : en:1
00:06:15.583 : en:2
00:13:25.874 : en:3
00:20:43.582 : en:4
00:28:08.873 : en:5
00:35:55.831 : en:6
00:42:27.747 : en:7
00:50:15.455 : en:8
00:57:46.288 : en:9
01:05:03.579 : en:10
01:11:38.829 : en:11
01:18:45.745 : en:12
01:25:45.453 : en:13
-Цитата:
* Сохранены оригинальные главы.
* Исходный WEB-DL куплен в рамках сервиса "Копилка".
Скачать

Скачать бесплатно и на максимальной скорости!

Как скачивать? · Что такое торрент? · Рейтинг и ограничения




Вы не можете начинать темы
Вы не можете отвечать на сообщения
Вы не можете редактировать свои сообщения
Вы не можете удалять свои сообщения
Вы не можете голосовать в опросах
Вы не можете прикреплять файлы к сообщениям
Вы не можете скачивать файлы