Эластико (Михаил Расходников) [2016, Россия, спорт, мелодрама, криминал, WEB-DL 1080p]


Размер:  2.9 GB   |    Зарегистрирован:  4 месяца 23 дня   |    Скачан:  0 раз

Полного источника не было: Никогда

by Virtuoz ®
26-Мар-2018 05:24

[Цитировать]

Эластико (Михаил Расходников) [2016, Россия, спорт, мелодрама, криминал, WEB-DL 1080p]

Эластико- Страна: Россия
Студия: Enjoy Movies
Жанр: спорт, мелодрама, криминал.
Год выпуска: 2016
Продолжительность: 01:21:25
Перевод: не требуется
Субтитры: нет
Оригинальная аудиодорожка: русский
Режиссер: Михаил Расходников
В ролях: Дмитрий Власкин, Ирина Антоненко, Алексей Маклаков, Александр Фролов, Владимир Епифанцев, Никита Волков, Никита Павленко, Ирина Безряднова, Максим Сорочинский, Петр Прозоровский.-Премьера: 24 ноября 2016-Описание: Матвей — простой парень из провинциального города. Он вырос с друзьями «на районе», здесь же встретил свою любовь — Дашу. От других Матвея отличают уникальные физические данные — крепкие ноги, мощная дыхалка, поразительная выносливость. Свой талант он использует, выигрывая со своей командой всех в дворовом футболе… и в мелких криминальных авантюрах, которые ему подгоняет друг Каша. Любимую девушку Дашу это очень беспокоит, и она всячески пытается оградить своего парня от необратимой ошибки. А подруги пытаются убедить Дашу бросить Матвея, ведь у нее даже есть перспективный вариант — обеспеченный ухажер Вадим. Неожиданно у Матвея появляется просто сказочная возможность поехать на смотр в Москву в футбольный клуб Премьер-лиги, но он не хочет оставлять Дашу, когда рядом «вьется» Вадим. А для того, чтобы взять её с собой, нужно достать деньги.-Рейтинг на КиноПоиске
-Сэмпл: https://cloud.mail.ru/public/2nRJ/StW8dckrF-Качество видео: WEB-DL 1080p
Формат видео: MKV
Видео: AVC, PAL, 1920x804, 16:9, 25 fps, 4 610 Kbps
Аудио: AC-3, 48.0 KHz, 384 Kbps, 6 ch (L/C/R) - Русский {ITunes}-

MediaInfo

General
Unique ID : 254459120125947184761969420161490749359 (0xBF6F0B3D823D71E68CBC5828A20607AF)
Complete name : D:\ELasTiKo.2O16.WEB-DL.1O8Op.mkv
Format : Matroska
Format version : Version 2
File size : 2.90 GiB
Duration : 1h 21mn
Overall bit rate : 5 095 Kbps
Encoded date : UTC 2016-12-14 19:26:41
Writing application : mkvmerge v8.3.0 ('Over the Horizon') 64bit
Writing library : libebml v1.3.1 + libmatroska v1.4.2
DURATION : 01:21:25.824000000
NUMBER_OF_FRAMES : 152682
NUMBER_OF_BYTES : 234519552
_STATISTICS_WRITING_APP : mkvmerge v8.3.0 ('Over the Horizon') 64bit
_STATISTICS_WRITING_DATE_UTC : 2016-12-14 19:26:41
_STATISTICS_TAGS : BPS DURATION NUMBER_OF_FRAMES NUMBER_OF_BYTES
Video
ID : 1
Format : AVC
Format/Info : Advanced Video Codec
Format profile : High@L4.0
Format settings, CABAC : Yes
Format settings, ReFrames : 5 frames
Codec ID : V_MPEG4/ISO/AVC
Duration : 1h 21mn
Bit rate : 4 610 Kbps
Width : 1 920 pixels
Height : 804 pixels
Display aspect ratio : 2.40:1
Frame rate mode : Constant
Frame rate : 25.000 fps
Color space : YUV
Chroma subsampling : 4:2:0
Bit depth : 8 bits
Scan type : Progressive
Bits/(Pixel*Frame) : 0.119
Stream size : 2.62 GiB (90%)
Language : English
Default : Yes
Forced : No
Color primaries : BT.709
Transfer characteristics : BT.709
Matrix coefficients : BT.709
Audio
ID : 2
Format : AC-3
Format/Info : Audio Coding 3
Mode extension : CM (complete main)
Format settings, Endianness : Big
Codec ID : A_AC3
Duration : 1h 21mn
Bit rate mode : Constant
Bit rate : 384 Kbps
Channel(s) : 6 channels
Channel positions : Front: L C R, Side: L R, LFE
Sampling rate : 48.0 KHz
Bit depth : 16 bits
Compression mode : Lossy
Stream size : 224 MiB (8%)
Language : Russian
Default : Yes
Forced : No
Menu
00:00:00.000 : en:Глава 1
00:08:02.920 : en:Глава 2
00:15:23.280 : en:Глава 3
00:21:52.440 : en:Глава 4
00:29:48.040 : en:Глава 5
00:37:05.120 : en:Глава 6
00:44:51.880 : en:Глава 7
00:51:16.960 : en:Глава 8
00:58:29.800 : en:Глава 9
01:05:10.560 : en:Глава 10
01:12:08.040 : en:Глава 11

Скриншоты




Вы не можете начинать темы
Вы не можете отвечать на сообщения
Вы не можете редактировать свои сообщения
Вы не можете удалять свои сообщения
Вы не можете голосовать в опросах
Вы не можете прикреплять файлы к сообщениям
Вы можете скачивать файлы