Семейное дело / Серии: 1-4 из 4 (Илья Хотиненко) [2018, Мелодрама, WEBRip]


by Boris G ®
23-Дек-2018 15:27

[Цитировать]

Семейное дело / Серии: 1-4 из 4 (Илья Хотиненко) [2018, Мелодрама, WEBRip]

Семейное дело- Год выпуска: 2018
Производство: Свэлл Фильм
Жанр: Мелодрама
Продолжительность: 00:45:28
Субтитры: нет-Режиссёр: Илья Хотиненко-В ролях: Борис Невзоров, Анна Каменкова, Андрей Курилов, Анна Миклош, Иван Паршин, Михаил Тарабукин, Василиса Остапец, Сергей Кудряшов, Ирина Савицкова, Алина Бабак, Анна Дулова, Елена Лотова, Руслан Чернецкий, Оксана Чивелёва, Янина Мелехова, Павел Устинов-Описание: На семейном ужине в честь юбилея свадьбы Люба сообщает, что они с Леонидом разводятся. Эта новость шокирует детей – уже взрослых, но привыкших укрываться от жизненных невзгод в родительском доме, ставшем для них нерушимой крепостью. Оставшись без опоры, дети пускаются во все тяжкие. Игорь, сев за руль пьяным после неудавшегося празднования, сбивает на дороге велосипедистку, которая оказывается невредимой, но ведёт себя очень странно… Случайно ли она оказалась у него на пути? Соня мечется между мужем и отцом её ребенка, пытаясь понять, кого из них она любит. Егор балансирует на грани служебного романа. Ваня ссорится с невестой. Каждый из них переживает кризис, и это отвлекает их от родителей, которые скрывают от них главную причину разрыва…-Сэмпл: http://multi-up.com/1209055-Релиз группа: -Качество: WEBRip
Формат: AVI
Видео кодек: XviD
Аудио кодек: AC3
Видео: 720x400 (16:9), 25.000 fps, XviD build 73, 1490 Kbps, 0.20 Bits/Pixel
Аудио: 48 kHz, AC3 Dolby Digital, 2 ch, 192 Kbps
Реклама: Нет

MI

General
Complete name : Downloads\Семейное дело (2018). WEB-DLRip.Files-x\1.Семейное дело (2018). WEB-DLRip.Files-x.avi
Format : AVI
Format/Info : Audio Video Interleave
File size : 550 MiB
Duration : 45mn 28s
Overall bit rate : 1 692 Kbps
Writing application : VirtualDubMod 1.5.10.3 | www.virtualdub-fr.org || (build 2550/release)
Writing library : VirtualDubMod build 2550/release
Video #0
ID : 0
Format : MPEG-4 Visual
Format profile : Advanced Simple@L5
Format settings, BVOP : 1
Format settings, QPel : No
Format settings, GMC : No warppoints
Format settings, Matrix : Custom
Codec ID : XVID
Codec ID/Hint : XviD
Duration : 45mn 28s
Bit rate : 1 490 Kbps
Width : 720 pixels
Height : 400 pixels
Display aspect ratio : 16:9
Frame rate : 25.000 fps
Color space : YUV
Chroma subsampling : 4:2:0
Bit depth : 8 bits
Scan type : Progressive
Compression mode : Lossy
Bits/(Pixel*Frame) : 0.207
Stream size : 485 MiB (88%)
Writing library : XviD 73
Audio #1
ID : 1
Format : AC-3
Format/Info : Audio Coding 3
Mode extension : CM (complete main)
Format settings, Endianness : Big
Codec ID : 2000
Duration : 45mn 28s
Bit rate mode : Constant
Bit rate : 192 Kbps
Channel(s) : 2 channels
Channel positions : Front: L R
Sampling rate : 48.0 KHz
Bit depth : 16 bits
Compression mode : Lossy
Stream size : 62.4 MiB (11%)
Alignment : Split accross interleaves
Interleave, duration : 40 ms (1.00 video frame)
Interleave, preload duration : 500 ms

Скриншоты

Предыдущие и альтернативные раздачи
Скачать

Скачать бесплатно и на максимальной скорости!

Как скачивать? · Что такое торрент? · Рейтинг и ограничения




Вы не можете начинать темы
Вы не можете отвечать на сообщения
Вы не можете редактировать свои сообщения
Вы не можете удалять свои сообщения
Вы не можете голосовать в опросах
Вы не можете прикреплять файлы к сообщениям
Вы не можете скачивать файлы