Источник (Надежда Витальская) [2016, Россия, драма, WEB-DL 1080p] + Original Rus


by Virtuoz ®
26-Мар-2018 08:24

[Цитировать]

Источник (Надежда Витальская) [2016, Россия, драма, WEB-DL 1080p] + Original Rus

Источник
Страна: Россия
Жанр: Драма
Год выпуска: 2016
Продолжительность: 01:31:31-Перевод: Не требуется
Субтитры: нет
Оригинальная аудиодорожка: русский-Режиссер: Надежда Витальская-В ролях: Иван Янковский, Валентина Колева, Роза Хайруллина, Александр Рапопорт, Павел Делонг, Светлана Нарышкина, Денис Курочка, Максим Заусалин, Игорь Черкашин, Яна Кошкина
Описание: Иван, типичный житель современного мегаполиса, по работе приезжает в провинциальный город. По плану здесь на месте лесного массива будет построен туристический комплекс. Осматривая место для строительства в лесу, Иван встречает юную красавицу Алёну и влюбляется в неё. Алёна не похожа на тех девушек, с которыми Иван встречался раньше, он околдован её свежестью и чистотой. Вспыхнувшему чувству молодых людей мешает всё: и власти города, и старший брат Ивана, и обстоятельства, складывающиеся не в их пользу. А самое главное то, что они абсолютно из разных миров. Смогут ли они преодолеть все препятствия и быть вместе, ведь они такие разные?.-Тип релиза: WEB-DL 1080p
Контейнер: MKV-Видео: 1920x804 (2,40:1), 24 fps, AVC MPEG-4 (x264), High@L4.0 ~ 4438 Кбит/сек, 0.120 bit/pixel-Аудио: Russian: 48 kHz, AC3, 3/2 (L,C,R,l,r) + LFE ch, ~384.00 kbps avg

MediaInfo

Общее
Уникальный идентификатор : 242489317588460316773639591601656365585 (0xB66DBE6944A445BF85771B10F4810211)
Полное имя : D:\Istochnik.WEB-DL.1080p.mkv
Формат : Matroska
Версия формата : Version 2
Размер файла : 3,15 Гбайт
Продолжительность : 1 ч. 31 м.
Общий поток : 4920 Кбит/сек
Дата кодирования : UTC 2016-12-27 18:17:53
Программа кодирования : mkvmerge v5.6.0 ('Kenya Kane') built on May 27 2012 16:44:04
Библиотека кодирования : libebml v1.2.3 + libmatroska v1.3.0
Видео
Идентификатор : 1
Формат : AVC
Формат/Информация : Advanced Video Codec
Профиль формата : High@L4.0
Параметр CABAC формата : Да
Параметр ReFrames формата : 5 кадров
Идентификатор кодека : V_MPEG4/ISO/AVC
Продолжительность : 1 ч. 31 м.
Битрейт : 4438 Кбит/сек
Ширина : 1920 пикселей
Высота : 804 пикселя
Соотношение сторон : 2,40:1
Режим частоты кадров : Постоянный
Частота кадров : 24,000 кадра/сек
Цветовое пространство : YUV
Субдискретизация насыщенности : 4:2:0
Битовая глубина : 8 бит
Тип развёртки : Прогрессивная
Бит/(Пиксели*Кадры) : 0.120
Размер потока : 2,84 Гбайт (90%)
Язык : Russian
Default : Да
Forced : Нет
Основные цвета : BT.709
Характеристики трансфера : BT.709
Коэффициенты матрицы : BT.709
Аудио
Идентификатор : 2
Формат : AC-3
Формат/Информация : Audio Coding 3
Расширение режима : CM (complete main)
Параметр Endianness формата : Big
Режим смешивания : Header stripping
Идентификатор кодека : A_AC3
Продолжительность : 1 ч. 31 м.
Вид битрейта : Постоянный
Битрейт : 384 Кбит/сек
Каналы : 6 каналов
Расположение каналов : Front: L C R, Side: L R, LFE
Частота : 48,0 КГц
Битовая глубина : 16 бит
Метод сжатия : С потерями
Размер потока : 251 Мбайт (8%)
Язык : Russian
Default : Да
Forced : Нет
Меню
00:00:00.000 : en:1
00:07:17.625 : en:2
00:14:08.958 : en:3
00:21:29.583 : en:4
00:28:01.041 : en:5
00:35:05.166 : en:6
00:41:49.999 : en:7
00:48:39.999 : en:8
00:55:11.457 : en:9
01:01:44.457 : en:10
01:09:02.915 : en:11
01:16:20.915 : en:12
01:24:08.123 : en:13

Скриншоты


Скачать

Скачать бесплатно и на максимальной скорости!

Как скачивать? · Что такое торрент? · Рейтинг и ограничения




Вы не можете начинать темы
Вы не можете отвечать на сообщения
Вы не можете редактировать свои сообщения
Вы не можете удалять свои сообщения
Вы не можете голосовать в опросах
Вы не можете прикреплять файлы к сообщениям
Вы не можете скачивать файлы