Орда / The Horde (Андрей Прошкин / Andrei Proshkin) [2012, Россия, История, BDRip 720p] + Original Rus


by Virtuoz ®
26-Мар-2018 08:24

[Цитировать]

Орда / The Horde (Андрей Прошкин / Andrei Proshkin) [2012, Россия, История, BDRip 720p] + Original Rus

Орда / The Horde
Страна: Россия
Студия: Pravoslavnaya Encyclopaedia
Жанр: История
Год выпуска: 2012
Продолжительность: 02:09:26--Перевод: Не требуется
Субтитры: нет
Оригинальная аудио дорожка: русская--Режиссер: Андрей Прошкин / Andrei Proshkin--В ролях: Максим Суханов, Андрей Панин, Виталий Хаев, Александр Яценко, Пётр Янданэ, Евгений Харитонов, Юрий Пронин, Роза Хайруллина, Виталий Гусев, Юнчен Жуань, Алексей Шевченков, Даулет Абдыгапаров, Толепберген Байсакалов, Моге Ооржак--Описание: Орда. Веками это слово означало кровавые набеги и унизительную дань для многих стран и народов. Странный и страшный мир со своими законами и обычаями. В середине XIV века власть Орды простирается над большей частью Евразии. Платит дань восточному соседу и Московское княжество. Когда ханшу Тайдулу сражает тяжелый недуг, ни один целитель оказывается не в силах ей помочь. Тогда в Орду вызывают «московского колдуна» митрополита Алексия. На карту поставлена судьба всего княжества. Однако и сам Алексий не знает, чем обернется его путешествие в Орду.--Доп. информация: Присутствует навигация по главам.--Сэмпл: http://sendfile.su/1293307--Тип релиза: BDRip 720p
Контейнер: MKV
Видео кодек: H.264
Аудио кодек: DTS
Видео: MPEG4/AVC,1280x544p, 2.35:1, 24.000 FPS, 7328 kb/s
Аудио: RUS / нет, DTS, 48.0 kHz, 5.1, 1509 kb/s | оригинал
Релиз:

MediaInfo

x264 [info]: profile High, level 4.1
---x264 [info]: frame I:984 Avg QP:13.68 size:125456
---x264 [info]: frame P:40483 Avg QP:15.11 size: 62225
---x264 [info]: frame B:144921 Avg QP:16.40 size: 32042
Формат : Matroska
Версия формата : Version 2
Размер файла : 8,15 Гбайт
Продолжительность : 2 ч. 9 м.
Общий поток : 9017 Кбит/сек
Название фильма : Orda - Rip from Rutracker <>
Дата кодирования : UTC 2016-12-24 15:45:35
Программа кодирования : mkvmerge v7.6.0 ('Garden of Dreams') 32bit built on Feb 11 2015 00:18:47
Библиотека кодирования : libebml v1.3.1 + libmatroska v1.4.2
Видео
Идентификатор : 1
Формат : AVC
Формат/Информация : Advanced Video Codec
Профиль формата : High@L4.1
Параметр CABAC формата : Да
Параметр ReFrames формата : 12 кадров
Идентификатор кодека : V_MPEG4/ISO/AVC
Продолжительность : 2 ч. 9 м.
Битрейт : 7328 Кбит/сек
Ширина : 1280 пикселей
Высота : 544 пикселя
Соотношение сторон : 2,35:1
Режим частоты кадров : Постоянный
Частота кадров : 24,000 кадра/сек
Цветовое пространство : YUV
Субдискретизация насыщенности : 4:2:0
Битовая глубина : 8 бит
Тип развёртки : Прогрессивная
Бит/(Пиксели*Кадры) : 0.439
Размер потока : 6,63 Гбайт (81%)
Заголовок : Orda - Rip from Rutracker <>
Библиотека кодирования : x264 core 148 r2744 b97ae06
Настройки программы : cabac=1 / ref=12 / deblock=1:-3:-3 / analyse=0x3:0x113 / me=umh / subme=10 / psy=1 / psy_rd=1.20:0.05 / mixed_ref=1 / me_range=24 / chroma_me=1 / trellis=2 / 8x8dct=1 / cqm=0 / deadzone=21,11 / fast_pskip=1 / chroma_qp_offset=-3 / threads=6 / lookahead_threads=1 / sliced_threads=0 / nr=0 / decimate=0 / interlaced=0 / bluray_compat=0 / constrained_intra=0 / bframes=9 / b_pyramid=2 / b_adapt=2 / b_bias=0 / direct=1 / weightb=1 / open_gop=0 / weightp=2 / keyint=250 / keyint_min=23 / scenecut=40 / intra_refresh=0 / rc_lookahead=60 / rc=crf / mbtree=0 / crf=15.2 / qcomp=0.67 / qpmin=0 / qpmax=69 / qpstep=4 / vbv_maxrate=62500 / vbv_bufsize=78125 / crf_max=0.0 / nal_hrd=none / filler=0 / ip_ratio=1.30 / pb_ratio=1.20 / aq=2:0.76
Default : Да
Forced : Нет
Statistics Tags Issue : mkvmerge v9.6.0 ('Slave To Your Mind') 64bit 2016-12-24 07:12:51 / mkvmerge v7.6.0 ('Garden of Dreams') 32bit built on Feb 11 2015 00:18:47 2016-12-24 15:45:35
FromStats_BitRate : 7505461
FromStats_Duration : 02:09:26.167000000
FromStats_FrameCount : 186388
FromStats_StreamSize : 7286083865
Аудио
Идентификатор : 2
Формат : DTS
Формат/Информация : Digital Theater Systems
Режим : 16
Параметр Endianness формата : Big
Идентификатор кодека : A_DTS
Продолжительность : 2 ч. 9 м.
Вид битрейта : Постоянный
Битрейт : 1509 Кбит/сек
Каналы : 6 каналов
Расположение каналов : Front: L C R, Side: L R, LFE
Частота : 48,0 КГц
Частота кадров : 93,750 кадра/сек (512 spf)
Битовая глубина : 24 бит
Метод сжатия : С потерями
Размер потока : 1,36 Гбайт (17%)
Заголовок : оригинал
Язык : Russian
Default : Да
Forced : Нет
Меню
00:00:00.000 : en:00:00:00.000
00:01:07.708 : en:00:01:07.708
00:01:18.708 : en:00:01:18.708
00:17:05.708 : en:00:17:05.708
00:32:55.708 : en:00:32:55.708
00:48:34.125 : en:00:48:34.125
01:03:39.000 : en:01:03:39.000
01:20:22.542 : en:01:20:22.542
01:34:06.667 : en:01:34:06.667
01:54:23.042 : en:01:54:23.042

Скриншоты








Скачать

Скачать бесплатно и на максимальной скорости!

Как скачивать? · Что такое торрент? · Рейтинг и ограничения




Вы не можете начинать темы
Вы не можете отвечать на сообщения
Вы не можете редактировать свои сообщения
Вы не можете удалять свои сообщения
Вы не можете голосовать в опросах
Вы не можете прикреплять файлы к сообщениям
Вы не можете скачивать файлы