След / Серии: 1-10,12-100 из ?? (Юрий Харнас и др.) [2007, Детектив, WEBRip 720p]


by Boris G ®
23-Дек-2018 15:27

[Цитировать]

След / Серии: 1-10,12-100 из ?? (Юрий Харнас и др.) [2007, Детектив, WEBRip 720p]

След
Год выпуска: 2007
Производство: ДокуДрама, Россия
Жанр: Детектив
Продолжительность: ~ 39 мин.
Субтитры: Нет
Режиссёр: Юрий Харнас и др.
В ролях: Ольга Копосова (Рогозина), Владимир Ташлыков (Круглов), Павел Шуваев (Майский), Георгий Тесля-Герасимов (Лисицын), Юлия Вайшнур (Соколова), Андрей Лавров (Котов), Анна Данькова (Антонова), Владимир Свешников (Ромашин), Ольга Зейгер (Белая), Сергей Пиоро (Шустов), Евгений Кулаков (Тихонов), Елена Головизина (Шустова), Олег Осипов (Белозeров), Анастасия Груздева (Семенчук), Олег Валкман(Селиванов), Станислав Эрклиевский (Гранин), Владимир Смирнов (Морозов), Руслан Сасин (Холодов), Нина Гогаева (Власова), Анастасия Гулимова (Амелина), Владислав Маленко (Аристов), Сергей Коваленко (Данилов)
Описание: Идеальных преступлений не бывает. После каждого остаются следы. Иногда эти следы бросаются в глаза. Иногда их можно найти только с помощью специальных приборов. Федеральная Экспертная служба - это уникальная лаборатория, которая объединяет несколько экспертных служб в одну и отвечает за проведение исследований во всех мыслимых областях прикладной криминалистики, будь то химическая, биологическая, медицинская экспертиза или баллистика...
Реклама: Нет
Семпл: http://multi-up.com/1208990
Доп информация:
В некоторых сериях есть чёрные полосы
Качество: WEBRip 720p
Формат: MKV
Видео кодек: H.264
Аудио кодек: AAC
Видео: MPEG4 AVC Video, H264, 16:9, 1280x720, 25 fps, ~1980 kbps, 0.086 bit/pixel
Аудио: AAC, 2 ch, 44.1 kHz, 192 Кбит/с

MI

Общее
Уникальный идентификатор : 199289327946195211794631382486025828592 (0x95EDBA7A4FF6F8D699604E56FA00F8F0)
Полное имя : Y:\Раздачи\След\След. 0001 - Укус куфии ч.1.mkv
Формат : Matroska
Версия формата : Version 4
Размер файла : 612 Мбайт
Продолжительность : 39 м. 43 с.
Общий поток : 2154 Кбит/сек
Дата кодирования : UTC 2018-09-05 06:50:34
Программа кодирования : mkvmerge v9.2.0 ('Photograph') 32bit
Библиотека кодирования : libebml v1.3.3 + libmatroska v1.4.4
Видео
Идентификатор : 1
Формат : AVC
Формат/Информация : Advanced Video Codec
Профиль формата : High@L3.1
Настройки формата : CABAC / 4 Ref Frames
Параметр CABAC формата : Да
Параметр RefFrames формата : 4 кадра
Идентификатор кодека : V_MPEG4/ISO/AVC
Продолжительность : 39 м. 43 с.
Битрейт : 1980 Кбит/сек
Ширина : 1280 пикселей
Высота : 720 пикселей
Соотношение сторон : 16:9
Режим частоты кадров : Постоянный
Частота кадров : 25,000 кадров/сек
Цветовое пространство : YUV
Субдискретизация насыщенности : 4:2:0
Битовая глубина : 8 бит
Тип развёртки : Прогрессивная
Бит/(Пиксели*Кадры) : 0.086
Размер потока : 557 Мбайт (91%)
Библиотека кодирования : x264 core 148
Настройки программы : cabac=1 / ref=2 / deblock=1:0:0 / analyse=0x3:0x113 / me=hex / subme=6 / psy=1 / psy_rd=1.00:0.00 / mixed_ref=1 / me_range=16 / chroma_me=1 / trellis=1 / 8x8dct=1 / cqm=0 / deadzone=21,11 / fast_pskip=1 / chroma_qp_offset=-2 / threads=6 / lookahead_threads=1 / sliced_threads=0 / nr=0 / decimate=1 / interlaced=0 / bluray_compat=0 / constrained_intra=0 / bframes=3 / b_pyramid=2 / b_adapt=1 / b_bias=0 / direct=1 / weightb=1 / open_gop=0 / weightp=1 / keyint=250 / keyint_min=25 / scenecut=40 / intra_refresh=0 / rc_lookahead=30 / rc=2pass / mbtree=1 / bitrate=1980 / ratetol=1.0 / qcomp=0.60 / qpmin=0 / qpmax=69 / qpstep=4 / cplxblur=20.0 / qblur=0.5 / vbv_maxrate=1980 / vbv_bufsize=3960 / nal_hrd=none / filler=0 / ip_ratio=1.40 / aq=1:1.00
Язык : Russian
Default : Да
Forced : Нет
Аудио
Идентификатор : 2
Формат : AAC LC
Формат/Информация : Advanced Audio Codec Low Complexity
Идентификатор кодека : A_AAC-2
Продолжительность : 39 м. 43 с.
Битрейт : 192 Кбит/сек
Каналы : 2 канала
Channel layout : L R
Частота : 44,1 КГц
Частота кадров : 43,066 кадра/сек (1024 SPF)
Метод сжатия : С потерями
Задержка видео : -46 мс.
Размер потока : 54,6 Мбайт (9%)
Язык : Russian
Default : Да
Forced : Нет

Список серий

001 - "Укус Куфии" (Часть 1)
002 - "Укус Куфии" (Часть 2)
003 - "Укус Куфии" (Часть 3)
004 - "Укус Куфии" (Часть 4)
005 - "Роковая страсть"
006 - "Любовь до гроба"
007 - "Доказать невозможно"
008 - "Скелет Отелло"
009 - "Нарисованные свидетели"
010 - "Английское убийство"
012 - "Метки"
013 - "Марка убийцы"
014 - "Бумеранг"
015 - "Таинственное исчезновение"
016 - "Частный детектив"
017 - "Я – судья"
018 - "Выстрел на охоте"
019 - "Расплата"
020 - "Запасной выход"
021 - "Атлет"
022 - "В объятиях леопарда"
023 - "Блёстки"
024 - "Программисты"
025 - "Молния"
026 - "Археолог"
027 - "Ограбление инкассаторов"
028 - "ДТП"
029 - "Капля моря"
030 - "Кара"
031 - "Зелёная радуга"
032 - "Пепел"
033 - "Секреты Светы"
034 - "Бомба замедленного действия"
035 - "Китайский ресторан"
036 - "Перстень Эссьена"
037 - "Фальшивка"
038 - "И другие родственники"
039 - "Королева красоты"
040 - "Зверство"
041 - "Паук"
042 - "СПИД"
043 - "Переводчица"
044 - "Время собирать камни"
045 - "Тугой кран"
046 - "Похищение"
047 - "Кристалл"
048 - "Школьная история"
049 - "Скромность"
050 - "Дело Круглова"
051 - "Катастрофа"
052 - "Вода"
053 - "Обручение"
054 - "Ошибка"
055 - "Слишком много убийц"
056 - "Мохнатое золото"
057 - "Светочувствительность"
058 - "Части тела"
059 - "Зачем тебе жить"
060 - "Недетская история"
061 - "Опасный поворот"
062 - "Сумерки"
063 - "Шакал"
064 - "Гемофилия"
065 - "Стрела Немезиды"
066 - "Шантаж"
067 - "Папарацци"
068 - "Фильтр"
069 - "Цена обиды"
070 - "Бита карта"
071 - "Рикошет"
072 - "Принцип матрёшки"
073 - "За отсутствием события преступления"
074 - "Роковое кольцо"
075 - "Последнее дело Майского"
076 - "Амнезия"
077 - "Косметика"
078 - "Прощание"
079 - "Гном"
080 - "Панацея"
081 - "Собачья смерть"
082 - "Тяжелый день"
083 - "8 герц"
084 - "Имитатор"
085 - "Братья"
086 - "Ювелир"
087 - "Кукольный домик"
088 - "Два в одном"
089 - "Убийство в СВ"
090 - "Лётчик"
091 - "Чёрный человек"
092 - "Любимые и любящие"
093 - "Грамотная бытовуха"
094 - "Роковой удар"
095 - "Сладкий сон"
096 - "Уран"
097 - "Самосуд"
098 - "Смерть на дороге"
099 - "Королева Марго"
100 - "Дуэль"

Скриншоты

Предыдущие и альтернативные раздачи
Скачать

Скачать бесплатно и на максимальной скорости!

Как скачивать? · Что такое торрент? · Рейтинг и ограничения




Вы не можете начинать темы
Вы не можете отвечать на сообщения
Вы не можете редактировать свои сообщения
Вы не можете удалять свои сообщения
Вы не можете голосовать в опросах
Вы не можете прикреплять файлы к сообщениям
Вы не можете скачивать файлы