Великий Учитель Онидзука / GTO: Great Teacher Onizuka [12 + Special из 12 + Special] [Япония, 1998, комедия, драма, мелодрама, DVDRip] [RAW] [MVO, Original + Rus Sub] (COWABUNGA STUDIO)


by Boris G ®
23-Дек-2018 15:28

[Цитировать]

Великий Учитель Онидзука / GTO: Great Teacher Onizuka [12 + Special из 12 + Special] [Япония, 1998, комедия, драма, мелодрама, DVDRip] [RAW] [MVO, Original + Rus Sub] (COWABUNGA STUDIO)

Великий Учитель Онизука / GTO: Great Teacher Onizuka -Страна: Япония
Год выпуска: 1998
Жанр: комедия, драма, мелодрама
Продолжительность: 12эп. / 45 мин. + Special / 90 мин.
Режиссер: Судзуки Масаюки
В ролях:
Соримати Такаси
Мацусима Нанако
Накао Акира
Кубодзука Ёсукэ
Икэути Хироюки
Ямадзаки Юта
-Озвучка любительская от:

Текст читали: Неудержимый, Ксения Королькова, Вадим Химеров
Тайминг и работа со звуком: Вадим Химеров (Vi.-Key.)
Перевод: GTO-Team
Большое спасибо Ma-a-aD'у за помощь с раздачей-Сэмпл-Описание: Игровая версия знаменитой манги о двадцатидвухлетнем раздолбае Эйкити Онидзуке, решившем после ухода из банды заняться карьерой учителя. Правда, из многих школ, куда пытался устроиться Онидзука, его приняли лишь в одну, да и то исключительно для того, чтобы он взялся за самый трудный и неуправляемый класс, ученики которого только и делают, что изводят одного учителя за другим. Что ж, с Онидзукой у них такой фокус не пройдет…-Неотключаемые субтитры: Без хардсаба
Качество видео: DVDRip
Формат: MKV
Видео: H264, 29.970 fps, 1280 Kbps, 720 x 540 pixels
Аудио 1: AC-3, 192 Kbps, stereo, 48 KHz, Язык Русский (в составе контейнера)
Аудио 2: AC-3, 192 Kbps, stereo, 48 KHz, Язык Японский (в составе контейнера)
Субтитры: Язык Русский (в составе контейнера)-

Кому интересно наше творчество, загляните

Наша группа вКонтакте - http://vk.com/cowabunga_studio
Наш паблик вКонтакте - http://vk.com/cowabunga_studio_public

Отличие от других раздач

http://rutracker.org/forum/viewtopic.php?t=885142 - алтернативная озвучка
http://rutracker.org/forum/viewtopic.php?t=101674 - наличие озвучки, отсутствие хардсаба
http://rutracker.org/forum/viewtopic.php?t=3844620 - альтернативная озвучка, другое разрешение и битрейт

Подробные тех.данные

General
Unique ID : 216406480980953724420180693973235697678 (0xA2CE5F47B79E6F639A439EE6CD54880E)
Complete name : D:\Белый волк\Видео\Фильмы\Great Teacher Onizuka (Великий Учитель Онизука) [Dorama] [Cowabunga Studio]\[Cowabunga Studio] GTO - 01 [RUS, JAP] [720x540 h264].mkv
Format : Matroska
Format version : Version 2
File size : 679 MiB
Duration : 57mn 0s
Overall bit rate : 1 665 Kbps
Encoded date : UTC 2013-02-18 17:58:02
Writing application : mkvmerge v4.6.0 ('Still Crazy After All These Years') сборка от Mar 10 2011 02:50:32
Writing library : libebml v1.2.0 + libmatroska v1.1.0
Video
ID : 1
Format : AVC
Format/Info : Advanced Video Codec
Format profile : High@L3.1
Format settings, CABAC : Yes
Format settings, ReFrames : 4 frames
Muxing mode : Header stripping
Codec ID : V_MPEG4/ISO/AVC
Duration : 57mn 0s
Bit rate : 1 280 Kbps
Width : 720 pixels
Height : 540 pixels
Display aspect ratio : 4:3
Frame rate mode : Constant
Frame rate : 29.970 fps
Color space : YUV
Chroma subsampling : 4:2:0
Bit depth : 8 bits
Scan type : Progressive
Bits/(Pixel*Frame) : 0.110
Stream size : 509 MiB (75%)
Title : GTO: Great Teacher Onizuka
Writing library : x264 core 98 r1649 20cbe10
Encoding settings : cabac=1 / ref=3 / deblock=1:-1:-1 / analyse=0x3:0x133 / me=tesa / subme=10 / psy=1 / psy_rd=1.00:0.15 / mixed_ref=1 / me_range=24 / chroma_me=1 / trellis=2 / 8x8dct=1 / cqm=0 / deadzone=21,11 / fast_pskip=0 / chroma_qp_offset=-3 / threads=3 / sliced_threads=0 / nr=0 / decimate=1 / interlaced=0 / constrained_intra=0 / bframes=3 / b_pyramid=2 / b_adapt=2 / b_bias=0 / direct=3 / weightb=1 / weightp=2 / keyint=250 / keyint_min=25 / scenecut=40 / intra_refresh=0 / rc_lookahead=60 / rc=2pass / mbtree=1 / bitrate=1280 / ratetol=1.0 / qcomp=0.60 / qpmin=10 / qpmax=51 / qpstep=4 / cplxblur=20.0 / qblur=0.5 / ip_ratio=1.40 / aq=1:1.00
Language : Japanese
Default : Yes
Forced : No
Audio #1
ID : 2
Format : AC-3
Format/Info : Audio Coding 3
Mode extension : CM (complete main)
Format settings, Endianness : Big
Muxing mode : Header stripping
Codec ID : A_AC3
Duration : 57mn 0s
Bit rate mode : Constant
Bit rate : 192 Kbps
Channel(s) : 2 channels
Channel positions : Front: L R
Sampling rate : 48.0 KHz
Bit depth : 16 bits
Compression mode : Lossy
Stream size : 78.3 MiB (12%)
Title : Неудержимый, Ксения Королькова, Вадим Химеров [Cowabunga Studio]
Language : Russian
Default : Yes
Forced : No
Audio #2
ID : 3
Format : AC-3
Format/Info : Audio Coding 3
Mode extension : CM (complete main)
Format settings, Endianness : Big
Muxing mode : Header stripping
Codec ID : A_AC3
Duration : 57mn 0s
Bit rate mode : Constant
Bit rate : 192 Kbps
Channel(s) : 2 channels
Channel positions : Front: L R
Sampling rate : 48.0 KHz
Bit depth : 16 bits
Compression mode : Lossy
Stream size : 78.3 MiB (12%)
Title : Original
Language : Japanese
Default : No
Forced : No
Text
ID : 4
Format : UTF-8
Codec ID : S_TEXT/UTF8
Codec ID/Info : UTF-8 Plain Text
Title : GTO-Team
Language : Russian
Default : No
Forced : No

Скриншоты

Скачать

Скачать бесплатно и на максимальной скорости!

Как скачивать? · Что такое торрент? · Рейтинг и ограничения




Вы не можете начинать темы
Вы не можете отвечать на сообщения
Вы не можете редактировать свои сообщения
Вы не можете удалять свои сообщения
Вы не можете голосовать в опросах
Вы не можете прикреплять файлы к сообщениям
Вы не можете скачивать файлы