Молот (Нурбек Эген) [2016, Россия, драма, спорт, WEB-DL 1080p]


Размер:  3.65 GB   |    Зарегистрирован:  4 месяца 24 дня   |    Скачан:  0 раз
Сидов:  1  [  0 KB/s  ]   Подробная статистика пиров
by Virtuoz ®
26-Мар-2018 05:24

[Цитировать]

Молот (Нурбек Эген) [2016, Россия, драма, спорт, WEB-DL 1080p]

Молот- -Страна: Россия
Жанр: драма, спорт
Год выпуска: 2016
Производство: «Всемирные Русские Студии»
Продолжительность: 01:45:59
Оригинальная аудиодорожка: русский
Субтитры: нет-Режиссер: Нурбек Эген-В ролях:
Алексей Чадов, Антон Шагин, Оксана Акиньшина, Сергей Чирков, Игорь Скляр, Евгений Евдокимов, Олег Посполитак, Александр Симкин, Никита Панфилов-Описание:
В шаге от чемпионского титула карьеру «Молота» перечеркивает страшная авария.
Отныне любой поединок может стать для него последним. Но когда под угрозой оказывается его любовь, он доказывает, что «Молотом» его прозвали не только за сокрушительный удар.
Настоящий боец на ринге и в жизни, он продолжает борьбу даже в центре паутины лжи и предательства. Рискуя всем, он идет напролом, чтобы спасти себя и свою возлюбленную.-Возраст: 12+-Качество: WEB-DL 1080p
Формат: MKV
Видео кодек: AVC
Аудио кодек: AC3

Видео: AVC, 1920 х 804 (16:9), 25,000 кадр/сек, 4448 Кбит/сек, 0.115 bit/pixel
Аудио: AC3, 48000 Hz, 384 Kbps, 6 каналов-

MediaInfo

Общее
Уникальный идентификатор : 188894980568370672058398951003298096266 (0x8E1BD995CE511CBCB9BF1FEDA506648A)
Полное имя : D:\Раздачи\Молот WEB-DL (1080p)\Молот WEB-DL (1080p).mkv
Формат : Matroska
Версия формата : Version 2
Размер файла : 3,65 Гбайт
Продолжительность : 1 ч. 45 м.
Общий поток : 4930 Кбит/сек
Название фильма : Molot (2016) - Release for HDCLUB
Дата кодирования : UTC 2016-12-18 19:17:23
Программа кодирования : mkvmerge v3.4.0 ('Rapunzel') built on May 15 2010 09:38:20
Библиотека кодирования : libebml v0.8.0 + libmatroska v0.9.0
Видео
Идентификатор : 1
Формат : AVC
Формат/Информация : Advanced Video Codec
Профиль формата : High@L4
Параметр CABAC формата : Да
Параметр ReFrames формата : 5 кадров
Идентификатор кодека : V_MPEG4/ISO/AVC
Продолжительность : 1 ч. 45 м.
Битрейт : 4448 Кбит/сек
Ширина : 1918 пикселей
Высота : 804 пикселя
Соотношение сторон : 2,40:1
Режим частоты кадров : Постоянный
Частота кадров : 25,000 кадров/сек
Цветовое пространство : YUV
Субдискретизация насыщенности : 4:2:0
Битовая глубина : 8 бит
Тип развёртки : Прогрессивная
Бит/(Пиксели*Кадры) : 0.115
Размер потока : 3,29 Гбайт (90%)
Заголовок : Molot (2016) - Release for HDCLUB
Язык : Russian
Default : Да
Forced : Нет
Цветовой диапазон : Limited
Основные цвета : BT.709
Характеристики трансфера : BT.709
Коэффициенты матрицы : BT.709
Аудио
Идентификатор : 2
Формат : AC-3
Формат/Информация : Audio Coding 3
Расширение режима : CM (complete main)
Параметр Endianness формата : Big
Идентификатор кодека : A_AC3
Продолжительность : 1 ч. 45 м.
Вид битрейта : Постоянный
Битрейт : 384 Кбит/сек
Каналы : 6 каналов
Расположение каналов : Front: L C R, Side: L R, LFE
Частота : 48,0 КГц
Частота кадров : 31,250 кадров/сек (1536 spf)
Метод сжатия : С потерями
Размер потока : 291 Мбайт (8%)
Заголовок : AC3 5.1 @ 384 kbps
Язык : Russian
Default : Да
Forced : Нет
Меню
00:00:00.000 : en:1
00:06:35.920 : en:2
00:14:34.280 : en:3
00:21:44.040 : en:4
00:28:50.520 : en:5
00:35:43.720 : en:6
00:43:38.520 : en:7
00:51:15.480 : en:8
00:59:40.400 : en:9
01:07:31.360 : en:10
01:14:29.840 : en:11
01:23:07.040 : en:12
01:31:31.720 : en:13
01:38:23.640 : en:14

Скриншоты

-Раздаю до первых 5-ти скачавших, на раздачи не возвращаюсь...-



Вы не можете начинать темы
Вы не можете отвечать на сообщения
Вы не можете редактировать свои сообщения
Вы не можете удалять свои сообщения
Вы не можете голосовать в опросах
Вы не можете прикреплять файлы к сообщениям
Вы можете скачивать файлы