Родня (Никита Михалков) [1981, СССР, мелодрама, трагикомедия, HDTVRip 720p] + Sub Rus, Eng


Размер:  3.82 GB   |    Зарегистрирован:  4 месяца 22 дня   |    Скачан:  0 раз

Полного источника не было: Никогда

by Virtuoz ®
26-Мар-2018 05:24

[Цитировать]

Родня (Никита Михалков) [1981, СССР, мелодрама, трагикомедия, HDTVRip 720p] + Sub Rus, Eng

Родня- Страна: СССР
Студия: «Мосфильм»
Жанр: мелодрама, трагикомедия
Год выпуска: 1981
Продолжительность: 01:32:25
Субтитры: русские, английские-Режиссер: Никита Михалков-В ролях:
Нонна Мордюкова, Светлана Крючкова, Андрей Петров, Иван Бортник, Юрий Богатырев, Федя Стуков, Всеволод Ларионов, Никита Михалков, Александр Адабашьян, Павел Лебешев, Лариса Кузнецова, Олег Меньшиков, Сергей Газаров, Владимир Хотиненко, Руслан Ахметов, Юрий Бабинцев, Валентина Березуцкая, Виктор Бутурлин, Эрика Джимпел, Анна Гуляренко, Юрий Гусев, Геннадий Иванов, Светлана Коновалова, Римма Маркова
Описание:
Фильм повествует о сложных взаимоотношениях близких друг другу людей. Главная героиня пытается остановить распад семьи своей дочери. Действуя из самых добрых побуждений, она не в состоянии понять, почему ее вмешательство вызывает столь бурный протест.-Сэмпл | Кинопоиск-Тип релиза: HDTVRip 720p / Rodnja.1981.HDTV.1080i.ts | kinozal tv, спасибо daboen
Контейнер: MKV
Видео: x264 (High@L4.1); 1000x720, Display aspect ratio 1.389:1, 25.000 fps, 5240 Kbps
Аудио 1: Русский: AC-3; 16 bit 48 Khz; 5.1ch 448 Kbps; CBR | DVD5, спасибо Basilevs
Аудио 2: Русский: AC-3; 16 bit 48 Khz; Mono 224 Kbps; CBR | --"--
Формат субтитров: softsub (SRT)

Исходник

MediaInfo

avs [info]: 1000x720p 1:1 @ 25/1 fps (cfr)
x264 [info]: using SAR=1/1
x264 [info]: profile High, level 4.1
x264 [info]: frame I:654 Avg QP:14.43 size:119038
x264 [info]: frame P:30317 Avg QP:16.88 size: 52414
x264 [info]: frame B:107656 Avg QP:19.13 size: 18256
x264 [info]: consecutive B-frames: 1.2% 2.9% 7.3% 21.0% 32.2% 25.1% 7.9% 1.5% 0.6% 0.3%
x264 [info]: mb I I16..4: 1.3% 87.6% 11.1%
x264 [info]: mb P I16..4: 0.3% 17.1% 1.1% P16..4: 30.7% 33.4% 17.3% 0.0% 0.0% skip: 0.1%
x264 [info]: mb B I16..4: 0.0% 1.0% 0.1% B16..8: 42.1% 13.5% 4.3% direct:11.6% skip:27.3% L0:39.8% L1:45.2% BI:15.0%
x264 [info]: 8x8 transform intra:91.6% inter:59.3%
x264 [info]: direct mvs spatial:99.4% temporal:0.6%
x264 [info]: coded y,uvDC,uvAC intra: 97.9% 75.8% 50.9% inter: 45.6% 21.3% 7.6%
x264 [info]: i16 v,h,dc,p: 6% 7% 5% 82%
x264 [info]: i8 v,h,dc,ddl,ddr,vr,hd,vl,hu: 10% 10% 8% 9% 13% 13% 12% 11% 12%
x264 [info]: i4 v,h,dc,ddl,ddr,vr,hd,vl,hu: 9% 8% 2% 9% 16% 16% 15% 12% 13%
x264 [info]: i8c dc,h,v,p: 38% 25% 20% 17%
x264 [info]: Weighted P-Frames: Y:4.3% UV:0.8%
x264 [info]: ref P L0: 40.4% 11.4% 18.3% 6.3% 6.3% 3.9% 4.3% 2.2% 2.5% 1.8% 2.2% 0.3% 0.0%
x264 [info]: ref B L0: 85.3% 7.6% 2.3% 1.4% 0.9% 0.8% 0.6% 0.5% 0.3% 0.3%
x264 [info]: ref B L1: 96.8% 3.2%
x264 [info]: kb/s:5240.34--General
Unique ID : 198356425949341932034349415786732611000 (0x953A0EDBB15DEEF1BACF3C84FDE465B8)
Complete name : Родня.1981.720р.mkv
Format : Matroska
Format version : Version 2
File size : 3.82 GiB
Duration : 1h 32mn
Overall bit rate : 5 913 Kbps
Movie name : «Родня»
Encoded date : UTC 2016-12-13 10:28:41
Writing application : mkvmerge v7.8.0 ('River Man') 32bit built on Mar 27 2015 16:18:02
Writing library : libebml v1.3.1 + libmatroska v1.4.2
Comment : HDTVRip-AVC
Originally released : December 12th 2016
Encoded by : george$t®
Video
ID : 1
Format : AVC
Format/Info : Advanced Video Codec
Format profile : High@L4.1
Format settings, CABAC : Yes
Format settings, ReFrames : 11 frames
Codec ID : V_MPEG4/ISO/AVC
Duration : 1h 32mn
Bit rate : 5 240 Kbps
Width : 1 000 pixels
Height : 720 pixels
Display aspect ratio : 1.389
Frame rate mode : Constant
Frame rate : 25.000 fps
Color space : YUV
Chroma subsampling : 4:2:0
Bit depth : 8 bits
Scan type : Progressive
Bits/(Pixel*Frame) : 0.291
Stream size : 3.31 GiB (87%)
Title : Родня.1981
Writing library : x264 core 148 r2721kMod 72d53ab
Encoding settings : cabac=1 / ref=11 / deblock=1:-3:-1 / analyse=0x3:0x113 / me=umh / subme=10 / psy=1 / fade_compensate=0.00 / psy_rd=1.01:0.00 / mixed_ref=1 / me_range=32 / chroma_me=1 / trellis=2 / 8x8dct=1 / cqm=0 / deadzone=21,11 / fast_pskip=0 / chroma_qp_offset=-2 / threads=12 / lookahead_threads=2 / sliced_threads=0 / nr=0 / decimate=0 / interlaced=0 / bluray_compat=0 / constrained_intra=0 / fgo=0 / bframes=9 / b_pyramid=2 / b_adapt=2 / b_bias=0 / direct=3 / weightb=1 / open_gop=0 / weightp=2 / keyint=250 / keyint_min=25 / scenecut=40 / intra_refresh=0 / rc_lookahead=60 / rc=2pass / mbtree=0 / bitrate=5240 / ratetol=1.0 / qcomp=0.65 / qpmin=0 / qpmax=69 / qpstep=4 / cplxblur=20.0 / qblur=0.5 / vbv_maxrate=62500 / vbv_bufsize=78125 / nal_hrd=none / filler=0 / ip_ratio=1.40 / pb_ratio=1.30 / aq=3:0.80
Language : Russian
Default : Yes
Forced : No
Color primaries : BT.709
Transfer characteristics : BT.709
Matrix coefficients : BT.709
Color range : Limited
Audio #1
ID : 2
Format : AC-3
Format/Info : Audio Coding 3
Mode extension : CM (complete main)
Format settings, Endianness : Big
Codec ID : A_AC3
Duration : 1h 32mn
Bit rate mode : Constant
Bit rate : 448 Kbps
Channel(s) : 6 channels
Channel positions : Front: L C R, Side: L R, LFE
Sampling rate : 48.0 KHz
Bit depth : 16 bits
Compression mode : Lossy
Stream size : 296 MiB (8%)
Title : AC-3; 16 bit 48 Khz; 5.1ch 448 Kbps; CBR | DVD5 "КП"
Language : Russian
Default : Yes
Forced : No
Audio #2
ID : 3
Format : AC-3
Format/Info : Audio Coding 3
Mode extension : CM (complete main)
Format settings, Endianness : Big
Codec ID : A_AC3
Duration : 1h 32mn
Bit rate mode : Constant
Bit rate : 224 Kbps
Channel(s) : 1 channel
Channel positions : Front: C
Sampling rate : 48.0 KHz
Bit depth : 16 bits
Compression mode : Lossy
Stream size : 148 MiB (4%)
Title : AC-3; 16 bit 48 Khz; Mono 224 Kbps; CBR | DVD5 "КП"
Language : Russian
Default : No
Forced : No
Text #1
ID : 4
Format : UTF-8
Codec ID : S_TEXT/UTF8
Codec ID/Info : UTF-8 Plain Text
Title : Субтитры русские
Language : Russian
Default : No
Forced : No
Text #2
ID : 5
Format : UTF-8
Codec ID : S_TEXT/UTF8
Codec ID/Info : UTF-8 Plain Text
Title : Субтитры английские
Language : English
Default : No
Forced : No
Menu
00:00:00.000 : ru:Спальный вагон
00:10:46.680 : ru:Мать и дочь
00:17:07.960 : ru:Внучка
00:25:51.200 : ru:Зять
00:29:10.760 : ru:Гражданин с усами
00:33:59.240 : ru:Ссора
00:43:29.960 : ru:Ночлег
00:49:14.200 : ru:Бывший муж
01:04:39.160 : ru:В ресторане
01:18:15.360 : ru:Ожидание
01:23:43.160 : ru:Проводы в армию
01:28:39.720 : ru:Финал. Титры



Вы не можете начинать темы
Вы не можете отвечать на сообщения
Вы не можете редактировать свои сообщения
Вы не можете удалять свои сообщения
Вы не можете голосовать в опросах
Вы не можете прикреплять файлы к сообщениям
Вы можете скачивать файлы