Самый лучший фильм 2 (Олег Фомин) [2009, Россия, комедия, пародия, BDRip 720p]


by Virtuoz ®
26-Мар-2018 08:24

[Цитировать]

Самый лучший фильм 2 (Олег Фомин) [2009, Россия, комедия, пародия, BDRip 720p]

Самый лучший фильм 2
Страна: Россия
Жанр: комедия, пародия
Год выпуска: 2009
Продолжительность: 01:25:00
Перевод: Не требуется
Субтитры: нет
Режиссер: Олег Фомин
В ролях: Тимур Батрутдинов, Гарик Харламов, Дмитрий Хрусталев, Олег Верещагин, Михаил Галустян, Дмитрий Нагиев, Александр Баширов, Сергей Лазарев, Екатерина Конисевич, Татьяна Лютаева...
Описание: Четверо закадычных друзей — Моряк, Актер, Мажор и Димати — после долгой разлуки встречаются в московском кафе отметить день рождения Мажора. На сей раз у них есть наличные, чтобы расплатиться с официанткой. И бегать по городу в поисках денег они будут совершенно по другой причине. Мажора похитили и требуют выкуп — миллион евро.
Чем друзья будут расплачиваться с бандитами, кто найдет новую любовь, а вместе с ней и приключения на все органы жизнедеятельности, кому придется испытать все тяготы сложного пути шоу-бизнеса к популярности, каково рэпперу кавказской наружности гулять одному по безлюдным улицам?! Но все это впереди, а пока они молоды, красивы, полны сил, надежд и ждут приключений!
Сэмпл: http://sendfile.su/1290096
Тип релиза: BDRip 720p
Контейнер: MKV
Видео: 1280x544 (2.35:1), 24.000 fps, AVC, ~7200 Kbps, 0.431 bits/pixel
Аудио: Russian, 48.0 KHz, AC3, 6 ch, 640 Kbps

Log

avs4x26x.exe: -L x264_64.exe --pass 2 --bitrate 7200 --preset medium --ref 9 --deblock -1:-1 --merange 32 --bframes 10 --direct auto --b-adapt 2 --trellis 2 --no-fast-pskip --subme 10 --me umh --rc-lookahead 50 --vbv-bufsize 14000 --vbv-maxrate 14000 --partitions p8x8,b8x8,i4x4,i8x8 --sar 1:1 --stats
raw [info]: 1280x544p 1:1 @ 24/1 fps (cfr)
x264 [info]: using SAR=1/1
x264 [info]: using cpu capabilities: MMX2 SSE2Fast LZCNT
x264 [info]: profile High, level 4.0
x264 [info]: frame I:1021 Avg QP:14.72 size:161832
x264 [info]: frame P:27847 Avg QP:17.84 size: 70354
x264 [info]: frame B:93531 Avg QP:20.19 size: 26304
x264 [info]: consecutive B-frames: 2.6% 4.4% 8.7% 20.2% 16.2% 38.6% 4.6% 1.0% 1.8% 0.7% 1.2%
x264 [info]: mb I I16..4: 3.4% 76.8% 19.8%
x264 [info]: mb P I16..4: 0.5% 16.0% 1.9% P16..4: 27.5% 30.2% 18.0% 0.0% 0.0% skip: 5.8%
x264 [info]: mb B I16..4: 0.0% 2.5% 0.3% B16..8: 36.6% 18.8% 8.5% direct: 9.0% skip:24.2% L0:42.7% L1:37.7% BI:19.7%
x264 [info]: 8x8 transform intra:85.7% inter:59.4%
x264 [info]: direct mvs spatial:98.2% temporal:1.8%
x264 [info]: coded y,uvDC,uvAC intra: 95.7% 91.8% 77.7% inter: 47.6% 39.8% 18.1%
x264 [info]: i16 v,h,dc,p: 53% 20% 5% 22%
x264 [info]: i8 v,h,dc,ddl,ddr,vr,hd,vl,hu: 10% 9% 8% 10% 14% 13% 12% 11% 12%
x264 [info]: i4 v,h,dc,ddl,ddr,vr,hd,vl,hu: 10% 9% 3% 9% 15% 15% 14% 12% 13%
x264 [info]: i8c dc,h,v,p: 48% 18% 17% 18%
x264 [info]: Weighted P-Frames: Y:3.2% UV:1.4%
x264 [info]: ref P L0: 43.9% 14.5% 17.6% 6.3% 6.0% 3.5% 3.7% 1.9% 2.4% 0.1% 0.0%
x264 [info]: ref B L0: 77.5% 10.2% 4.8% 2.7% 2.0% 1.5% 0.9% 0.4%
x264 [info]: ref B L1: 96.3% 3.7%
x264 [info]: kb/s:7191.60
x264 [total]: encoded 122399 frames, 5.07 fps, 7191.60 kb/s

MediaInfo

General
Unique ID : 238448122839259242560232234594435398787 (0xB36370207FEA0C80B4632E3572E0FC83)
Complete name : C:\Самый лучший фильм 2. BDRip 720p.mkv
Format : Matroska
Format version : Version 4 / Version 2
File size : 4.65 GiB
Duration : 1h 25mn
Overall bit rate : 7 833 Kbps
Encoded date : UTC 2016-12-13 07:11:19
Writing application : mkvmerge v9.6.0 ('Slave To Your Mind') 64bit
Writing library : libebml v1.3.4 + libmatroska v1.4.5
Video
ID : 1
Format : AVC
Format/Info : Advanced Video Codec
Format profile : High@L4
Format settings, CABAC : Yes
Format settings, ReFrames : 9 frames
Codec ID : V_MPEG4/ISO/AVC
Duration : 1h 24mn
Bit rate : 7 200 Kbps
Width : 1 280 pixels
Height : 544 pixels
Display aspect ratio : 2.35:1
Frame rate mode : Constant
Frame rate : 24.000 fps
Color space : YUV
Chroma subsampling : 4:2:0
Bit depth : 8 bits
Scan type : Progressive
Bits/(Pixel*Frame) : 0.431
Stream size : 4.27 GiB (92%)
Writing library : x264 core 148 r2744 b97ae06
Encoding settings : cabac=1 / ref=9 / deblock=1:-1:-1 / analyse=0x3:0x113 / me=umh / subme=10 / psy=1 / psy_rd=1.00:0.00 / mixed_ref=1 / me_range=32 / chroma_me=1 / trellis=2 / 8x8dct=1 / cqm=0 / deadzone=21,11 / fast_pskip=0 / chroma_qp_offset=-2 / threads=6 / lookahead_threads=1 / sliced_threads=0 / nr=0 / decimate=1 / interlaced=0 / bluray_compat=0 / constrained_intra=0 / bframes=10 / b_pyramid=2 / b_adapt=2 / b_bias=0 / direct=3 / weightb=1 / open_gop=0 / weightp=2 / keyint=250 / keyint_min=24 / scenecut=40 / intra_refresh=0 / rc_lookahead=50 / rc=2pass / mbtree=1 / bitrate=7200 / ratetol=1.0 / qcomp=0.60 / qpmin=0 / qpmax=69 / qpstep=4 / cplxblur=20.0 / qblur=0.5 / vbv_maxrate=14000 / vbv_bufsize=14000 / nal_hrd=none / filler=0 / ip_ratio=1.40 / aq=1:1.00
Language : Russian
Default : Yes
Forced : No
Audio
ID : 2
Format : AC-3
Format/Info : Audio Coding 3
Mode extension : CM (complete main)
Format settings, Endianness : Big
Codec ID : A_AC3
Duration : 1h 25mn
Bit rate mode : Constant
Bit rate : 640 Kbps
Channel(s) : 6 channels
Channel positions : Front: L C R, Side: L R, LFE
Sampling rate : 48.0 KHz
Frame rate : 31.250 fps (1536 spf)
Compression mode : Lossy
Stream size : 389 MiB (8%)
Language : Russian
Default : Yes
Forced : No
Menu
00:00:00.000 : :Chapter 01
00:05:42.666 : :Chapter 02
00:09:44.500 : :Chapter 03
00:17:02.333 : :Chapter 04
00:20:12.000 : :Chapter 05
00:21:49.625 : :Chapter 06
00:27:24.833 : :Chapter 07
00:33:24.000 : :Chapter 08
00:42:59.541 : :Chapter 09
00:46:48.500 : :Chapter 10
00:51:24.416 : :Chapter 11
00:56:31.416 : :Chapter 12
01:03:44.041 : :Chapter 13
01:09:07.208 : :Chapter 14
01:16:18.416 : :Chapter 15
01:22:49.500 : :Chapter 16
01:24:59.833 : :Chapter 17

Скриншоты

Скачать

Скачать бесплатно и на максимальной скорости!

Как скачивать? · Что такое торрент? · Рейтинг и ограничения




Вы не можете начинать темы
Вы не можете отвечать на сообщения
Вы не можете редактировать свои сообщения
Вы не можете удалять свои сообщения
Вы не можете голосовать в опросах
Вы не можете прикреплять файлы к сообщениям
Вы не можете скачивать файлы