Игра лжецов: Рождённый заново / Liar Game: Saisei / Liar Game : Reborn (Нироаки Мацуяма / Hiroaki Matsuyama) [RUS(int) VO (den904)] [2012, Япония, драма, триллер, HDRip] [RAW]


by Boris G ®
23-Дек-2018 15:28

[Цитировать]

Игра лжецов: Рождённый заново / Liar Game: Saisei / Liar Game : Reborn (Нироаки Мацуяма / Hiroaki Matsuyama) [RUS(int) VO (den904)] [2012, Япония, драма, триллер, HDRip] [RAW]

Игра лжецов: Рождённый заново / Liar Game: Saisei / Liar Game : Reborn
Страна: Япония
Жанр: драма, триллер
Год выпуска: 2012
Продолжительность: 02:10:20
-
Перевод: одноголосый закадровый den904
Перевод на русский: FukunagaYuji
Субтитры: нет
Режиссер: Нироаки Мацуяма / Hiroaki Matsuyama
В ролях: Сота Мацуда, Микако Табэ, Мана Асида-Описание: Секретариат Игры Лжецов решил отомстить предыдущим участникам за свой проигрыш в финальном раунде. Главный обидчик - Акияма Шиничи. Через его студентку, Шиномию Ю, Секретариату вновь удалось заманить Акияму в эту жестокую игру. Кто победит на этот раз? Кто попытается обмануть всех и будет повержен, а кто будет обманут и попытается выйти из этого положения!-РЕЛИЗ ГРУППЫ
ПРОЕКТ "Нет в Кино" -СЭМПЛ: http://www.sendspace.com/file/mdlo28-Качество видео: HDRip (Liar.Game.Reborn.2012.BluRay.720p.DTS.x264-YYeTs)
Формат видео: AVI
Видео: XviD, 720x384 (1.88:1), 23.976 fps, 1472 kbps avg, 0.22 bit/pixel
Аудио: Русский, 48 kHz, MPEG layer 3, 128 kbps
Синхрон / Сведение / Рип: Нет в кино-

Ссылки на предыдущие раздачи

http://rutracker.org/forum/tracker.php?nm=%C8%E3%F0%E0+%EB%E6%E5%F6%EE%E2

Отличия от других раздач

http://rutracker.org/forum/viewtopic.php?t=4209529
http://rutracker.org/forum/viewtopic.php?t=4320087
наличие озвучивания, другое качество видео

MediaInfo

Format : AVI
Format/Info : Audio Video Interleave
File size : 1.47 GiB
Duration : 2h 10mn
Overall bit rate : 1 611 Kbps
Writing application : VirtualDubMod 1.5.10.2 (build 2540/release)
Writing library : VirtualDubMod build 2540/release
Video
ID : 0
Format : MPEG-4 Visual
Format profile : Advanced Simple@L5
Format settings, BVOP : 2
Format settings, QPel : No
Format settings, GMC : No warppoints
Format settings, Matrix : Custom
Codec ID : XVID
Codec ID/Hint : XviD
Duration : 2h 10mn
Bit rate : 1 474 Kbps
Width : 720 pixels
Height : 384 pixels
Display aspect ratio : 1.875
Frame rate : 23.976 fps
Color space : YUV
Chroma subsampling : 4:2:0
Bit depth : 8 bits
Scan type : Progressive
Compression mode : Lossy
Bits/(Pixel*Frame) : 0.222
Stream size : 1.34 GiB (91%)
Writing library : XviD 73
Audio
ID : 1
Format : MPEG Audio
Format version : Version 1
Format profile : Layer 3
Mode : Joint stereo
Mode extension : MS Stereo
Codec ID : 55
Codec ID/Hint : MP3
Duration : 2h 10mn
Bit rate mode : Constant
Bit rate : 128 Kbps
Channel(s) : 2 channels
Sampling rate : 48.0 KHz
Compression mode : Lossy
Stream size : 119 MiB (8%)
Alignment : Aligned on interleaves
Interleave, duration : 42 ms (1.00 video frame)
Interleave, preload duration : 504 ms

Скриншот c названием фильма

Скриншоты

Скачать

Скачать бесплатно и на максимальной скорости!

Как скачивать? · Что такое торрент? · Рейтинг и ограничения




Вы не можете начинать темы
Вы не можете отвечать на сообщения
Вы не можете редактировать свои сообщения
Вы не можете удалять свои сообщения
Вы не можете голосовать в опросах
Вы не можете прикреплять файлы к сообщениям
Вы не можете скачивать файлы