Метод / Сезон: 1 / Серии: 1-16 из 16 (Юрий Быков) [2015, триллер, криминал, драма, WEB-DL 1080p] Sub Rus, Bul, Eng


by Boris G ®
23-Дек-2018 15:27

[Цитировать]

Метод / Сезон: 1 / Серии: 1-16 из 16 (Юрий Быков) [2015, триллер, криминал, драма, WEB-DL 1080p] Sub Rus, Bul, Eng

Метод
Год выпуска: 2015
Производство: Среда
Жанр: триллер, криминал, драма
Продолжительность: ~00:53:00
Субтитры: русские, русские SDH, болгарские, английские
Режиссёр: Юрий Быков
В ролях: Константин Хабенский, Паулина Андреева, Алексей Серебряков, Александр Цекало, Виталий Кищенко, Тимофей Трибунцев, Юрий Колокольников, Виктор Цекало, Сергей Сосновский, Александр Петров
Описание: Главный герой — Родион Меглин — загадочная и неординарная личность, следователь высочайшего уровня, который раскрывает самые сложные убийства. Он привык работать в одиночку, не раскрывая секреты своего метода.
Выпускница юрфака Есеня получает направление в отделение полиции, в котором служит Меглин, и становится его стажером. У девушки есть личные мотивы для работы с прославленным следователем — мать Есени убили, а отец скрывает важные детали произошедшего, но она не оставляет надежды выйти на след убийцы.
Работа с Меглиным становится для Есени тяжелым испытанием. Профессиональные успехи и странное поведение учителя заставляют девушку задуматься: если Родион так тонко чувствует маньяков и может предсказать их действия, не является ли он сам одним из них?
Сэмпл
Предыдущие и альтернативные раздачи
Качество: WEB-DL 1080p (TrollHD)
Контейнер: MKV
Видео: MPEG-4 AVC, 1920x1080 (16:9), 25 fps, ~6490 kbps
Аудио: E-AC3, 48 kHz, 2 ch, 128 kbps [Russian]
Формат субтитров: softsub (SRT)
Реклама: отсутствует

MediaInfo

General
Unique ID : 213594447391532688306685644639184288909 (0xA0B0CB51E955740DF4130911B842FC8D)
Format : Matroska
Format version : Version 4 / Version 2
File size : 2.18 GiB
Duration : 47 min 16 s
Overall bit rate mode : Variable
Overall bit rate : 6 603 kb/s
Encoded date : UTC 2018-09-14 16:44:55
Writing application : mkvmerge v26.0.0 ('In The Game') 64-bit
Writing library : libebml v1.3.6 + libmatroska v1.4.9
Video
ID : 1
Format : AVC
Format/Info : Advanced Video Codec
Format profile : Main@L4
Format settings : CABAC / 3 Ref Frames
Format settings, CABAC : Yes
Format settings, RefFrames : 3 frames
Codec ID : V_MPEG4/ISO/AVC
Duration : 47 min 16 s
Bit rate mode : Variable
Bit rate : 6 490 kb/s
Maximum bit rate : 9 735 kb/s
Width : 1 920 pixels
Height : 1 080 pixels
Display aspect ratio : 16:9
Frame rate mode : Constant
Frame rate : 25.000 FPS
Color space : YUV
Chroma subsampling : 4:2:0
Bit depth : 8 bits
Scan type : Progressive
Bits/(Pixel*Frame) : 0.125
Stream size : 2.14 GiB (98%)
Writing library : x264 core 118
Encoding settings : cabac=1 / ref=3 / deblock=1:0:0 / analyse=0x1:0x111 / me=umh / subme=10 / psy=1 / psy_rd=1.00:0.00 / mixed_ref=1 / me_range=24 / chroma_me=1 / trellis=2 / 8x8dct=0 / cqm=0 / deadzone=21,11 / fast_pskip=1 / chroma_qp_offset=-2 / threads=8 / sliced_threads=0 / nr=0 / decimate=1 / interlaced=0 / bluray_compat=0 / constrained_intra=0 / bframes=2 / b_pyramid=0 / b_adapt=2 / b_bias=0 / direct=3 / weightb=1 / open_gop=0 / weightp=2 / keyint=50 / keyint_min=26 / scenecut=0 / intra_refresh=0 / rc_lookahead=0 / rc=2pass / mbtree=1 / bitrate=6490 / ratetol=1.0 / qcomp=0.50 / qpmin=6 / qpmax=51 / qpstep=4 / cplxblur=20.0 / qblur=0.5 / vbv_maxrate=9735 / vbv_bufsize=12980 / nal_hrd=vbr / ip_ratio=1.40 / aq=1:1.00
Language : Russian
Default : Yes
Forced : No
Audio
ID : 2
Format : E-AC-3
Format/Info : Enhanced Audio Coding 3
Codec ID : A_EAC3
Duration : 47 min 16 s
Bit rate mode : Constant
Bit rate : 128 kb/s
Channel(s) : 2 channels
Channel positions : Front: L R
Sampling rate : 48.0 kHz
Frame rate : 187.500 FPS (256 SPF)
Compression mode : Lossy
Stream size : 43.3 MiB (2%)
Language : Russian
Service kind : Complete Main
Default : Yes
Forced : No
Text #1
ID : 3
Format : UTF-8
Codec ID : S_TEXT/UTF8
Codec ID/Info : UTF-8 Plain Text
Duration : 44 min 57 s
Bit rate : 66 b/s
Count of elements : 449
Stream size : 21.9 KiB (0%)
Language : Russian
Default : No
Forced : No
Text #2
ID : 4
Format : UTF-8
Codec ID : S_TEXT/UTF8
Codec ID/Info : UTF-8 Plain Text
Duration : 46 min 12 s
Bit rate : 80 b/s
Count of elements : 541
Stream size : 27.3 KiB (0%)
Title : SDH
Language : Russian
Default : No
Forced : No
Text #3
ID : 5
Format : UTF-8
Codec ID : S_TEXT/UTF8
Codec ID/Info : UTF-8 Plain Text
Duration : 44 min 58 s
Bit rate : 66 b/s
Count of elements : 450
Stream size : 21.8 KiB (0%)
Language : Bulgarian
Default : No
Forced : No
Text #4
ID : 6
Format : UTF-8
Codec ID : S_TEXT/UTF8
Codec ID/Info : UTF-8 Plain Text
Duration : 44 min 58 s
Bit rate : 44 b/s
Count of elements : 450
Stream size : 14.8 KiB (0%)
Language : English
Default : No
Forced : No

Скриншоты

Скачать

Скачать бесплатно и на максимальной скорости!

Как скачивать? · Что такое торрент? · Рейтинг и ограничения




Вы не можете начинать темы
Вы не можете отвечать на сообщения
Вы не можете редактировать свои сообщения
Вы не можете удалять свои сообщения
Вы не можете голосовать в опросах
Вы не можете прикреплять файлы к сообщениям
Вы не можете скачивать файлы