ГАРО: Кровавый Реквием / Garo: Red Requime (Кэйта Амэмия / Keita Amemiya) [2010, Япония, токусатсу, DVDRip-AVC] [RUS, JAP] [RAW]


by Boris G ®
23-Дек-2018 15:28

[Цитировать]

ГАРО: Кровавый Реквием / Garo: Red Requime (Кэйта Амэмия / Keita Amemiya) [2010, Япония, токусатсу, DVDRip-AVC] [RUS, JAP] [RAW]

ГАРО: Кровавый Реквием / Garo: Red Requime
Страна: Япония
Жанр: токусатсу
Год выпуска: 2010
Продолжительность: 01:37:03
-
Перевод: одноголосый закадровый den904
Перевод на русский: maslenok-39
Субтитры: нет
Режиссер: Кэйта Амэмия / Keita Amemiya
В ролях: Рёсэй Кониси, Ёсукэ Сайтою, Масахиро Курануки
-
Описание: Прибыв в город, Саэджима Кога встречает группу Макай Жрецов, которые рассказывают ему о Карме, таинственном Хорроре, живущем в зеркале и питающимся человеческими душами. Сможет ли наш герой победить Карму и удастся ли ему спастись?-РЕЛИЗ ГРУППЫ
ПРОЕКТ "Нет в Кино" -СЭМПЛ: http://www.sendspace.com/file/dozpz6-Качество видео: http://rutracker.org/forum/viewtopic.php?t=3722440
Формат видео: AVI
Видео: H.264, 720x400, 23.976 fps, 1774 kbps
Аудио 1 : Русский, 48 kHz, MPEG layer 3, 128 kbps
Аудио 2 : Японский, 48 kHz, Dolby Digital, 6 ch, 384 kbps
Синхрон / Сведение: Нет в кино-

MediaInfo

Format : Matroska
Format version : Version 1
File size : 1.55 GiB
Duration : 1h 37mn
Overall bit rate : 2 289 Kbps
Encoded date : UTC 2013-01-24 02:18:26
Writing application : mkvmerge v2.4.1 ('Use Me') built on Dec 5 2008 18:30:05
Writing library : libebml v0.7.7 + libmatroska v0.8.1
Video
ID : 1
Format : AVC
Format/Info : Advanced Video Codec
Format profile : High@L3.0
Format settings, CABAC : Yes
Format settings, ReFrames : 5 frames
Codec ID : V_MPEG4/ISO/AVC
Duration : 1h 37mn
Bit rate : 1 774 Kbps
Width : 720 pixels
Height : 400 pixels
Display aspect ratio : 16:9
Original display aspect ratio : 16:9
Frame rate : 23.976 fps
Color space : YUV
Chroma subsampling : 4:2:0
Bit depth : 8 bits
Scan type : Progressive
Bits/(Pixel*Frame) : 0.257
Stream size : 1.17 GiB (76%)
Writing library : x264 core 115 r1995 c1e60b9
Encoding settings : cabac=1 / ref=5 / deblock=1:-1:-1 / analyse=0x3:0x113 / me=umh / subme=8 / psy=1 / psy_rd=1.00:0.15 / mixed_ref=1 / me_range=16 / chroma_me=1 / trellis=1 / 8x8dct=1 / cqm=0 / deadzone=21,11 / fast_pskip=1 / chroma_qp_offset=-3 / threads=9 / sliced_threads=0 / nr=0 / decimate=1 / interlaced=0 / bluray_compat=0 / constrained_intra=0 / bframes=3 / b_pyramid=2 / b_adapt=2 / b_bias=0 / direct=3 / weightb=1 / open_gop=0 / weightp=2 / keyint=250 / keyint_min=23 / scenecut=40 / intra_refresh=0 / rc_lookahead=50 / rc=2pass / mbtree=1 / bitrate=1774 / ratetol=1.0 / qcomp=0.60 / qpmin=0 / qpmax=69 / qpstep=4 / cplxblur=20.0 / qblur=0.5 / ip_ratio=1.40 / aq=1:1.00
Default : Yes
Forced : No
Audio #1
ID : 2
Format : MPEG Audio
Format version : Version 1
Format profile : Layer 3
Mode : Joint stereo
Mode extension : MS Stereo
Codec ID : A_MPEG/L3
Codec ID/Hint : MP3
Duration : 1h 37mn
Bit rate mode : Constant
Bit rate : 128 Kbps
Channel(s) : 2 channels
Sampling rate : 48.0 KHz
Compression mode : Lossy
Stream size : 88.9 MiB (6%)
Default : No
Forced : No
Audio #2
ID : 3
Format : AC-3
Format/Info : Audio Coding 3
Mode extension : CM (complete main)
Format settings, Endianness : Big
Codec ID : A_AC3
Duration : 1h 37mn
Bit rate mode : Constant
Bit rate : 384 Kbps
Channel(s) : 6 channels
Channel positions : Front: L C R, Side: L R, LFE
Sampling rate : 48.0 KHz
Bit depth : 16 bits
Compression mode : Lossy
Stream size : 267 MiB (17%)
Language : Japanese
Default : Yes
Forced : No

Скриншот c названием фильма

Скриншоты

Скачать

Скачать бесплатно и на максимальной скорости!

Как скачивать? · Что такое торрент? · Рейтинг и ограничения




Вы не можете начинать темы
Вы не можете отвечать на сообщения
Вы не можете редактировать свои сообщения
Вы не можете удалять свои сообщения
Вы не можете голосовать в опросах
Вы не можете прикреплять файлы к сообщениям
Вы не можете скачивать файлы