Кем мы не станем / Серии: 1-2 из 2 (Виталий Бабенко) [2018, мелодрама, WEBRip]


by Boris G ®
23-Дек-2018 15:27

[Цитировать]

Кем мы не станем / Серии: 1-2 из 2 (Виталий Бабенко) [2018, мелодрама, WEBRip]

Кем мы не станем
Год выпуска: 2018
Производство: ООО Энерджи Фильм
Жанр: мелодрама
Продолжительность: ~00:45:00 серия
Субтитры: нет
Режиссёр: Виталий Бабенко
В ролях: Ольга Арнтгольц, Алексей Митин, Екатерина Соломатина, Максим Коновалов, Лилия Кондрова, Александр Кульков, Лидия Арефьева, Алла Малкова, Филипп Грабовецкий, Владимир Бутенко, Григорий Шевчук, Софья Торосян, Николай Иванов, Максим Иванов

Описание: Ира и Соня – две подруги, которые привыкли делить на двоих и радости, и горе. К сожалению, последнего на их долю пришлось в избытке: обе мечтали о детях, но они так и не случились, затем в аварии погибли их мужья Гена и Дима, а спустя еще некоторое время Ира узнала, что серьезно больна. В одиночку со всеми этими испытаниями героиня бы не справилась, но рядом оставалась Соня, готовая всегда ее поддержать. Неожиданно после всего судьба делает Ире настоящий подарок: женщина узнает, что беременна. Но после рождения сына Феди Ире еще нужно пройти долгое и изнуряющее лечение, так что все заботы о мальчике заботливо берет на себя Соня. Ребенок Иры привносит и в ее жизнь радость и надежду, однако вскоре женщина понимает, что хочет быть для мальчика вовсе «тетей Соней», а мамой.

Реклама: Нет.
Кинопоиск
Все раздачи сериала
Sample
Качество: WEBRip - 25Kuzmich
Формат: AVI
Видео кодек: XviD
Аудио кодек: AC3
Видео: 720x400 (1.80:1), 25 fps, XviD build 73 ~1650 kbps avg, 0.229 bit/pixel
Аудио: 48.0 kHz, AC3 Dolby Digital, 2/0 (L,R) ch, ~ 192 kbps

MI

General
Complete name : D:\Kem.my.ne.stanem.2018.WEB-DLRip.25Kuzmich\Kem.my.ne.stanem.(01.seriya.iz.02).WEB-DLRip.25Kuzmich.avi
Format : AVI
Format/Info : Audio Video Interleave
File size : 593 MiB
Duration : 44mn 44s
Overall bit rate : 1 852 Kbps
Writing application : VirtualDubMod 1.5.10.3 | www.virtualdub-fr.org || (build 2550/release)
Writing library : VirtualDubMod build 2550/release
Video
ID : 0
Format : MPEG-4 Visual
Format profile : Advanced Simple@L5
Format settings, BVOP : 1
Format settings, QPel : No
Format settings, GMC : No warppoints
Format settings, Matrix : Default (MPEG)
Codec ID : XVID
Codec ID/Hint : XviD
Duration : 44mn 44s
Bit rate : 1 650 Kbps
Width : 720 pixels
Height : 400 pixels
Display aspect ratio : 16:9
Frame rate : 25.000 fps
Color space : YUV
Chroma subsampling : 4:2:0
Bit depth : 8 bits
Scan type : Progressive
Compression mode : Lossy
Bits/(Pixel*Frame) : 0.229
Stream size : 528 MiB (89%)
Writing library : XviD 1.2.1 (UTC 2008-12-04)
Audio
ID : 1
Format : AC-3
Format/Info : Audio Coding 3
Mode extension : CM (complete main)
Format settings, Endianness : Big
Codec ID : 2000
Duration : 44mn 44s
Bit rate mode : Constant
Bit rate : 192 Kbps
Channel count : 2 channels
Channel positions : Front: L R
Sampling rate : 48.0 KHz
Bit depth : 16 bits
Compression mode : Lossy
Stream size : 61.4 MiB (10%)
Alignment : Split accross interleaves
Interleave, duration : 40 ms (1.00 video frame)
Interleave, preload duration : 500 ms

Скриншоты


Скачать

Скачать бесплатно и на максимальной скорости!

Как скачивать? · Что такое торрент? · Рейтинг и ограничения




Вы не можете начинать темы
Вы не можете отвечать на сообщения
Вы не можете редактировать свои сообщения
Вы не можете удалять свои сообщения
Вы не можете голосовать в опросах
Вы не можете прикреплять файлы к сообщениям
Вы не можете скачивать файлы