Тучи над холмами / Saka no ue no kumo (Такаши Исшики, Такеши Шибата / Takashi Isshiki, Takeshi Shibata) (13 / 13) [RUS, JAP] [Япония, 2009-2011, военный, драма, 13хDVD5 (Custom)]


by Boris G ®
23-Дек-2018 15:28

[Цитировать]

Тучи над холмами / Saka no ue no kumo (Такаши Исшики, Такеши Шибата / Takashi Isshiki, Takeshi Shibata) (13 / 13) [RUS, JAP] [Япония, 2009-2011, военный, драма, 13хDVD5 (Custom)]

Тучи над холмами / Saka no ue no kumo
Год выпуска: 2009-2011
Страна: Япония
Жанр: военный, драма
Продолжительность: 89 мин + 89 мин + 89 мин + 89 мин + 89 мин + 89 мин + 89 мин + 89 мин + 89 мин + 89 мин + 89 мин + 89 мин + 89 мин.
Перевод: Авторский (одноголосый закадровый) А.Дольский
Русские субтитры: нет
Режиссёр: Такаши Исшики, Такеши Шибата / Takashi Isshiki, Takeshi Shibata
В ролях: Широ Ито, Такако Мацу, Юкиёси Одзава, Кейко Такешита, Кенджи Ватанабе, Хироши Абе, Олегар Федоро, Эндрю Форбс, Такахиро Фуджимото, Джулиан Гловер, Марина Александрова, Александр Иванов, Артем Григорьев.
Описание: Совместный русско-японский проект, идея которого зародилась в Японии в связи с 105-летием русско-японской войны 1904-1905 гг. Производством сериала занималась японская телевизионная корпорация NHK, и в нем приняли участие как японские, так и российские актеры. Русско-японская война не является популярной темой в российском кино, и это вполне понятно, поскольку ее результаты были сочтены позором для Российской империи, которая не смогла справиться с достаточно скромной в то время Японией. Однако японцы всегда относились серьезно к своей истории, тем более, что это была единственная победоносная война с европейским государством. В основу сериала лег роман известного японского писателя-историка Сиба Рётаро под названием «Тучи над холмами». Действие сериала разворачивается во времена эпохи Мэйдзи - бурного периода модернизации Японии второй половины XIX - начала XX вв. - и посвящено судьбам двух японских военных, братьев Акияма - Санэюки и Ёсифуру, принимавших участие в русско-японской войне 1904–1905 гг. При этом они показаны отнюдь не гениальными или особо одаренными людьми, а, напротив, вполне обыкновенными жителями своей страны, которые благодаря патриотизму и упорству добиваются своих целей.Особое место в сериале занимает сюжетная линия героями которой стали японский морской офицер Хиросэ Такэо и петербургская аристократка Ариадна (ее роль исполняет Марина Александрова). Это история любви людей двух разных культур, разделенных многими тысячами верст, а после начала военных действий еще и оказавшихся по разные стороны фронта...
Доп. информация: Диски японские, любезно предоставлены Avallac'h, спасибо. За перевод Дольского спасибо пользователям: MeGUI, KpucTo161, feldeger, Guyver, dunhill200, AVO-Detector, zweryga, ZeRoNe, WhiteHorse, aleksandrn70, Dr. Destructo, dedmozor. Синхронизация Нордер. также спасибо. В 12 серии нет перевода 00:24:13,018 - 00:24:41,447 (версия на диске длинее на этот эпизод)
Используемое ПО:
PGCDemux (извлечение).
BeSweet, Sony Vegas 9 (звук) Нордер.
MuxMan (сборка).
VobBlanker (финал)
Ссылка на предыдущие и альтернативные раздачи: нет таковых
Сэмпл: http://multi-up.com/819419

Качество: DVD5 (Custom)
Формат: DVD-Video
Видео кодек: MPEG2
Аудио кодек: AC3
Видео: NTSC 16:9 (720x480) VBR
Аудио 1: Russian (Dolby AC3, 2 ch, 192 kbps)
Аудио 2: Japanese (Dolby AC3, 2 ch, 192 kbps)

DVDInfo

Size: 4.28 Gb ( 4 491 718,00 KBytes ) - DVD-5
Enabled regions: 1, 2, 3, 4, 5, 6
VTS_01 :
Play Length: 01:29:12+{01:28:56}
Video: NTSC 16:9 (720x480) VBR, Auto Letterboxed
Audio:
Russian (Dolby AC3, 2 ch)
Japanese (Dolby AC3, 2 ch)
Subtitles:
English
* Menus Information *
VIDEO_TS Menu
Video:
NTSC 16:9 (720x480) VBR
Auto Letterboxed
Audio:
Not specified (Dolby AC3, 2 ch)
Japanese Language Unit :
Title Menu
VTS_01 Menu
Video:
NTSC 16:9 (720x480) VBR
Auto Letterboxed
Audio:
Not specified (Dolby AC3, 2 ch)
Japanese Language Unit :
Root Menu

MediaInfo

ормат : MPEG-PS
Размер файла : 1024 Мбайт
Продолжительность : 20 м.
Режим общего битрейта : Переменный
Общий поток : 6904 Кбит/сек
Видео
Идентификатор : 224 (0xE0)
Формат : MPEG Video
Версия формата : Version 2
Профиль формата : Main@Main
Параметр BVOP формата : Да
Параметр матрицы формата : Выборочная
Параметр GOP формата : Variable
Продолжительность : 20 м.
Вид битрейта : Переменный
Битрейт : 6383 Кбит/сек
Максимальный битрейт : 9800 Кбит/сек
Ширина : 720 пикселей
Высота : 480 пикселей
Соотношение сторон : 16:9
Частота кадров : 29,970 кадров/сек
Стандарт вещания : NTSC
Цветовое пространство : YUV
Субдискретизация насыщенности : 4:2:0
Битовая глубина : 8 бит
Тип развёртки : Чересстрочная
Порядок развёртки : Верхнее поле первое
Метод сжатия : С потерями
Бит/(Пиксели*Кадры) : 0.616
Размер потока : 947 Мбайт (92%)
Аудио #1
Идентификатор : 189 (0xBD)-128 (0x80)
Формат : AC-3
Формат/Информация : Audio Coding 3
Расширение режима : CM (complete main)
Параметр Endianness формата : Big
Режим смешивания : DVD-Video
Продолжительность : 20 м.
Вид битрейта : Постоянный
Битрейт : 192 Кбит/сек
Каналы : 2 канала
Расположение каналов : Front: L R
Частота : 48,0 КГц
Битовая глубина : 16 бит
Метод сжатия : С потерями
Задержка видео : -381 мс.
Размер потока : 28,5 Мбайт (3%)
Аудио #2
Идентификатор : 189 (0xBD)-129 (0x81)
Формат : AC-3
Формат/Информация : Audio Coding 3
Расширение режима : CM (complete main)
Параметр Endianness формата : Big
Режим смешивания : DVD-Video
Продолжительность : 20 м.
Вид битрейта : Постоянный
Битрейт : 192 Кбит/сек
Каналы : 2 канала
Расположение каналов : Front: L R
Частота : 48,0 КГц
Битовая глубина : 16 бит
Метод сжатия : С потерями
Задержка видео : -381 мс.
Размер потока : 28,5 Мбайт (3%)
Текст
Идентификатор : 189 (0xBD)-32 (0x20)
Формат : RLE
Формат/Информация : Run-length encoding
Режим смешивания : DVD-Video
Меню

Скриншоты меню

Скриншоты

Внимание! Раздача ведётся путём добавления новых серий!

Внимание! Раздача ведётся путём добавления новых серий; при каждом добавлении создётся новый торрент. Чтобы начать докачку новой серии, пользователям необходимо сделать следующее:
(1) остановить скачивание,
(2) удалить старый торрент у себя из клиента (старые серии удалять не надо),
(3) скачать новый торрент и запустить его у себя в клиенте вместо старого, при этом указать клиенту путь в старую папку куда и должно происходить скачивание новых серий.
Ваш клиент при этом должен произвести хеширование (проверку) старой папки (если не производит сам - помогите ему сделать это), и будет докачивать только те серии которых у вас ещё нет. Старые серии при этом не удаляются, а продолжают раздаваться!
Eсли вы уже удалили старые серии, то предотвратить повторную закачку старых серий можно, отжав галочку в соответсвующих местах при запуске нового торрента.
Без согласования со мной просьба на кинозал не заливать
Скачать

Скачать бесплатно и на максимальной скорости!

Как скачивать? · Что такое торрент? · Рейтинг и ограничения




Вы не можете начинать темы
Вы не можете отвечать на сообщения
Вы не можете редактировать свои сообщения
Вы не можете удалять свои сообщения
Вы не можете голосовать в опросах
Вы не можете прикреплять файлы к сообщениям
Вы не можете скачивать файлы