Кем мы не станем / Серии: 1-2 из 2 (Виталий Бабенко) [2018, мелодрама, WEBRip 1080p]


by Boris G ®
23-Дек-2018 15:27

[Цитировать]

Кем мы не станем / Серии: 1-2 из 2 (Виталий Бабенко) [2018, мелодрама, WEBRip 1080p]

Кем мы не станем
Год выпуска: 2018
Производство: ООО Энерджи Фильм
Жанр: мелодрама
Продолжительность: ~00:45:00 серия
Субтитры: нет
Режиссёр: Виталий Бабенко
В ролях: Ольга Арнтгольц, Алексей Митин, Екатерина Соломатина, Максим Коновалов, Лилия Кондрова, Александр Кульков, Лидия Арефьева, Алла Малкова, Филипп Грабовецкий, Владимир Бутенко, Григорий Шевчук, Софья Торосян, Николай Иванов, Максим Иванов

Описание: Ира и Соня – две подруги, которые привыкли делить на двоих и радости, и горе. К сожалению, последнего на их долю пришлось в избытке: обе мечтали о детях, но они так и не случились, затем в аварии погибли их мужья Гена и Дима, а спустя еще некоторое время Ира узнала, что серьезно больна. В одиночку со всеми этими испытаниями героиня бы не справилась, но рядом оставалась Соня, готовая всегда ее поддержать. Неожиданно после всего судьба делает Ире настоящий подарок: женщина узнает, что беременна. Но после рождения сына Феди Ире еще нужно пройти долгое и изнуряющее лечение, так что все заботы о мальчике заботливо берет на себя Соня. Ребенок Иры привносит и в ее жизнь радость и надежду, однако вскоре женщина понимает, что хочет быть для мальчика вовсе «тетей Соней», а мамой.

Реклама: Нет.
Кинопоиск
Все раздачи сериала
Sample
Качество: WEBRip 1080p - Getty
Формат: MKV
Видео кодек: H.264
Аудио кодек: AC3
Видео: MPEG4 AVC Video, H264, 16:9, 1920x1080, 25 fps, ~3900 kbps, 0.075 bit/pixel
Аудио: AC3 Dolby Digital, 48.0 kHz, 2/0 (L,R) ch, 192 kbps

MI

General
Unique ID : 185996790568698919542103790265932489458 (0x8BEDADC9383992ABB16BFBC63C24A2F2)
Complete name : D:\Kem.my.ne.stanem.2018.WEB-DL.(1080p).Getty\Kem.my.ne.stanem.e01.2018.WEB-DL.(1080p).Getty.mkv
Format : Matroska
Format version : Version 4 / Version 2
File size : 1.30 GiB
Duration : 44mn 44s
Overall bit rate : 4 158 Kbps
Movie name : Kem.my.ne.stanem.e01.2018.WEB-DL.(1080p).Getty
Encoded date : UTC 2018-09-14 10:32:19
Writing application : mkvmerge v7.8.0 ('River Man') 32bit built on Mar 27 2015 16:18:02
Writing library : libebml v1.3.1 + libmatroska v1.4.2
DURATION : 00:44:44.032000000
NUMBER_OF_FRAMES : 83876
NUMBER_OF_BYTES : 64416768
_STATISTICS_WRITING_APP : mkvmerge v7.8.0 ('River Man') 32bit built on Mar 27 2015 16:18:02
_STATISTICS_WRITING_DATE_UTC : 2018-09-14 10:32:19
_STATISTICS_TAGS : BPS DURATION NUMBER_OF_FRAMES NUMBER_OF_BYTES
Video
ID : 1
Format : AVC
Format/Info : Advanced Video Codec
Format profile : High@L4.0
Format settings, CABAC : Yes
Format settings, ReFrames : 3 frames
Codec ID : V_MPEG4/ISO/AVC
Duration : 44mn 44s
Bit rate : 3 883 Kbps
Width : 1 920 pixels
Height : 1 080 pixels
Display aspect ratio : 16:9
Frame rate mode : Constant
Frame rate : 25.000 fps
Color space : YUV
Chroma subsampling : 4:2:0
Bit depth : 8 bits
Scan type : Progressive
Bits/(Pixel*Frame) : 0.075
Stream size : 1.21 GiB (93%)
Default : Yes
Forced : No
Audio
ID : 2
Format : AC-3
Format/Info : Audio Coding 3
Mode extension : CM (complete main)
Format settings, Endianness : Big
Codec ID : A_AC3
Duration : 44mn 44s
Bit rate mode : Constant
Bit rate : 192 Kbps
Channel count : 2 channels
Channel positions : Front: L R
Sampling rate : 48.0 KHz
Bit depth : 16 bits
Compression mode : Lossy
Stream size : 61.4 MiB (5%)
Default : Yes
Forced : No

Скриншоты


Скачать

Скачать бесплатно и на максимальной скорости!

Как скачивать? · Что такое торрент? · Рейтинг и ограничения




Вы не можете начинать темы
Вы не можете отвечать на сообщения
Вы не можете редактировать свои сообщения
Вы не можете удалять свои сообщения
Вы не можете голосовать в опросах
Вы не можете прикреплять файлы к сообщениям
Вы не можете скачивать файлы