Франц + Полина (Михаил Сегал) [2006, Россия, Беларусь, драма, военный, HDTV 1080i]


by Virtuoz ®
26-Мар-2018 08:24

[Цитировать]

Франц + Полина (Михаил Сегал) [2006, Россия, Беларусь, драма, военный, HDTV 1080i]

Франц + Полина- -Страна: Россия, Беларусь
Жанр: драма, военный
Год выпуска: 2006
Производство: «Югра-фильм»
Продолжительность: 01:58:27
Оригинальная аудиодорожка: русский
Субтитры: на иностранную речь-Режиссер: Михаил Сегал-В ролях:
Адриан Тополь, Светлана Иванова, Тамара Миронова, Уве Йеллинек, Валя Мацапура, Эрика Булатая, Наталья Горбатенко, Андрей Мерзликин, Денис Тарасенко, Виктор Рыбчинский, Виктор Романов, Виталий Пришиц, Евгений Калмыков, Александр Старченко, Иван Хмельницкий, Вера Ботяновская, Галина Сантерская, Максим Мацапуро, Павел Заяц, Виктор Манаев, Алексей Колокольцев, Матвей Шкуратов, Джульетта Геринг (Казакевич), Михаил Петров, Юрий Влодавский, Михаил Сегал, Алексей Турович, Игорь Сигов, Галина Букатина, Анатолий Голуб, Александр Яцевич-Описание:
1943 год. В одной из белорусских деревень останавливается подразделение СС. Вместо того, чтобы уничтожить жителей, эсэсовцы становятся их добрыми и милыми постояльцами. Но успеет ли самый юный из солдат Франц объясниться с Полиной, дочерью своей хозяйки, до того, как поступит новый приказ?..-Возраст: 16+-Качество: HDTV (1080i)
Формат: TS
Видео кодек: AVC
Аудио кодек: AC3, MPEG Audio 2

Видео: AVC, 1920 х 1080 (16:9), 25,000 кадр/сек, 9001 Кбит/сек, 0.174 bit/pixel
Аудио 1: AC3, 48000 Hz, 448 Kbps, 6 каналов
Аудио 2: MPEG Audio 2, 48000 Hz, 192 Kbps, 2 канала-

MediaInfo

Общее
Идентификатор : 1 (0x1)
Полное имя : D:\Раздачи\Франц + Полина HDTV (1080i)\Франц + Полина HDTV (1080i).ts
Формат : MPEG-TS
Размер файла : 8,40 Гбайт
Продолжительность : 1 ч. 58 м.
Режим общего битрейта : Переменный
Общий поток : 10,1 Мбит/сек
Видео
Идентификатор : 3531 (0xDCB)
Идентификатор меню : 17013 (0x4275)
Формат : AVC
Формат/Информация : Advanced Video Codec
Профиль формата : Main@L4
Параметр CABAC формата : Да
Параметр ReFrames формата : 4 кадра
Параметр GOP формата : M=1, N=32
Идентификатор кодека : 27
Продолжительность : 1 ч. 58 м.
Битрейт : 9001 Кбит/сек
Ширина : 1920 пикселей
Высота : 1080 пикселей
Соотношение сторон : 16:9
Частота кадров : 25,000 кадров/сек
Цветовое пространство : YUV
Субдискретизация насыщенности : 4:2:0
Битовая глубина : 8 бит
Тип развёртки : Чересстрочная
Метод сохранения типа развёртки : Раздельные поля
Порядок развёртки : Верхнее поле первое
Бит/(Пиксели*Кадры) : 0.174
Размер потока : 7,45 Гбайт (89%)
Цветовой диапазон : Limited
Основные цвета : BT.709
Характеристики трансфера : BT.709
Коэффициенты матрицы : BT.709
Аудио #1
Идентификатор : 3532 (0xDCC)
Идентификатор меню : 17013 (0x4275)
Формат : AC-3
Формат/Информация : Audio Coding 3
Расширение режима : CM (complete main)
Параметр Endianness формата : Big
Идентификатор кодека : 6
Продолжительность : 1 ч. 58 м.
Вид битрейта : Постоянный
Битрейт : 448 Кбит/сек
Каналы : 6 каналов
Расположение каналов : Front: L C R, Side: L R, LFE
Частота : 48,0 КГц
Частота кадров : 31,250 кадров/сек (1536 spf)
Метод сжатия : С потерями
Размер потока : 380 Мбайт (4%)
Язык : Russian
Аудио #2
Идентификатор : 3533 (0xDCD)
Идентификатор меню : 17013 (0x4275)
Формат : MPEG Audio
Версия формата : Version 1
Профиль формата : Layer 2
Идентификатор кодека : 3
Продолжительность : 1 ч. 58 м.
Вид битрейта : Постоянный
Битрейт : 192 Кбит/сек
Каналы : 2 канала
Частота : 48,0 КГц
Метод сжатия : С потерями
Размер потока : 163 Мбайт (2%)
Язык : Russian

Скриншоты

-Раздаю до первых 5-ти скачавших, на раздачи не возвращаюсь...-
-
Сообщения из этой темы [5 шт.] были выделены в отдельную тему roett [id: 42411653] (0)
Сообщения из этой темы [1 шт.] были выделены в отдельную тему Выделено из: Франц + Полина (Михаил Сегал) [2006, Россия, Беларусь, драма, военный, HDTV 1080i] [5321939]
G00ba
Скачать

Скачать бесплатно и на максимальной скорости!

Как скачивать? · Что такое торрент? · Рейтинг и ограничения




Вы не можете начинать темы
Вы не можете отвечать на сообщения
Вы не можете редактировать свои сообщения
Вы не можете удалять свои сообщения
Вы не можете голосовать в опросах
Вы не можете прикреплять файлы к сообщениям
Вы не можете скачивать файлы