Судьба обмену не подлежит / Серии: 1-4 из 4 (Алексей Гусев) [2018, мелодрама, WEBRip]


by Boris G ®
23-Дек-2018 15:27

[Цитировать]

Судьба обмену не подлежит / Серии: 1-4 из 4 (Алексей Гусев) [2018, мелодрама, WEBRip]

Судьба обмену не подлежит
Год выпуска: 2018
Производство: Filmstream, Vileton production
Жанр: мелодрама
Продолжительность: ~00:45:00 серия
Субтитры: нет
Режиссёр: Алексей Гусев
В ролях: Юлия Такшина, Ольга Олексий, Виталий Кудрявцев, Тамара Антропова, Татьяна Чердынцева, Юлия Амелькина, Клавдия Дрозд, Константин Октябрьский, Александр Попов
Описание: Юная Наталья, забеременевшая после изнасилования, хочет оставить новорожденную дочь в роддоме, так как у нее нет средств, чтобы растить девочку. Но, познакомившись с соседкой по палате, – счастливой матерью сестер-двойняшек и женой обеспеченного бизнесмена, Наталья решает перехитрить судьбу и меняет свою дочь местами с одной из двойняшек Анны и Бориса. Девочка попадает в дом малютки, откуда ее вскоре забирает и удочеряет Лана – подруга семьи Бориса. Ей дают имя Лиза...

Реклама: Нет.
Кинопоиск
Все раздачи сериала
Sample
Качество: WEBRip - Nicodem.Files-x
Формат: AVI
Видео кодек: XviD
Аудио кодек: AC3
Видео: 720x400 (1.80:1), 25 fps, XviD build 73 ~1650 kbps avg, 0.230 bit/pixel
Аудио: 48.0 kHz, AC3 Dolby Digital, 2/0 (L,R) ch, ~ 192 kbps

MI

General
Complete name : D:\Судьба обмену не подлежит.2018.WEBRip.by.Nicodem.Files-x\01.Судьба обмену не подлежит.2018.WEBRip.by.Nicodem.Files-x.avi
Format : AVI
Format/Info : Audio Video Interleave
File size : 600 MiB
Duration : 45mn 9s
Overall bit rate : 1 856 Kbps
Writing application : VirtualDubMod 1.5.10.3 | www.virtualdub-fr.org || (build 2550/release)
Writing library : VirtualDubMod build 2550/release
Video
ID : 0
Format : MPEG-4 Visual
Format profile : Advanced Simple@L5
Format settings, BVOP : 1
Format settings, QPel : Yes
Format settings, GMC : No warppoints
Format settings, Matrix : Custom
Codec ID : XVID
Codec ID/Hint : XviD
Duration : 45mn 9s
Bit rate : 1 654 Kbps
Width : 720 pixels
Height : 400 pixels
Display aspect ratio : 16:9
Frame rate : 25.000 fps
Color space : YUV
Chroma subsampling : 4:2:0
Bit depth : 8 bits
Scan type : Progressive
Compression mode : Lossy
Bits/(Pixel*Frame) : 0.230
Stream size : 534 MiB (89%)
Writing library : XviD 73
Audio
ID : 1
Format : AC-3
Format/Info : Audio Coding 3
Mode extension : CM (complete main)
Format settings, Endianness : Big
Codec ID : 2000
Duration : 45mn 9s
Bit rate mode : Constant
Bit rate : 192 Kbps
Channel count : 2 channels
Channel positions : Front: L R
Sampling rate : 48.0 KHz
Bit depth : 16 bits
Compression mode : Lossy
Stream size : 62.0 MiB (10%)
Alignment : Split accross interleaves
Interleave, duration : 40 ms (1.00 video frame)
Interleave, preload duration : 500 ms

Скриншоты


Скачать

Скачать бесплатно и на максимальной скорости!

Как скачивать? · Что такое торрент? · Рейтинг и ограничения




Вы не можете начинать темы
Вы не можете отвечать на сообщения
Вы не можете редактировать свои сообщения
Вы не можете удалять свои сообщения
Вы не можете голосовать в опросах
Вы не можете прикреплять файлы к сообщениям
Вы не можете скачивать файлы