Контакт (Сергей Борчуков) [2011, Россия, фантастика, HDTV 1080i]


by Virtuoz ®
26-Мар-2018 08:24

[Цитировать]

Контакт (Сергей Борчуков) [2011, Россия, фантастика, HDTV 1080i]

Контакт- -Страна: Россия
Жанр: фантастика
Год выпуска: 2011
Продолжительность: 01:35:22
Оригинальная аудиодорожка: русский
Субтитры: нет-Режиссер: Сергей Борчуков-В ролях:
Алексей Горбунов, Дмитрий Орлов, Ирина Лачина, Александр Анисимов, Константин Соловьёв-Описание:
Экипаж космического корабля возвращается на землю. На спускаемом аппарате обнаружены значительные внешние повреждения не совместимые с жизнью космонавтов, но не смотря на это, они живы. Более того, ни на одном из них нет ни единой царапины. Все органы функционируют нормально. Единственная проблема, все они находятся в коме, и врачам не удаётся вывести их из этого состояния. Кроме того, у них в крови обнаружено странное вещество, аналогов которому до сегодняшнего дня на земле не было. Об этом узнает Виктор — сам в прошлом космонавт, выгнанный из отряда, сейчас игрок, любитель казино и алкоголя.
В настоящее время работает водителем на мусоровозе. В его руки попадает видеокамера от человека, за которым гналась милиция. На кадрах записи просмотренных на мониторе компьютера, Виктор узнает космонавтов. Свою бывшую жену Ольгу (врача-биолога) и генерала Громова (руководителя проекта). Виктор понимает, что его бывшей жене Ольге грозит опасность. Он проникает на территорию секретной военной базы, чтобы увидеть её и попытаться спасти, но попадает в руки генерала Громова, который решает при помощи неизвестного вещества поставить эксперимент на Викторе. Громов предполагает, что космонавты остались живы благодаря проникновению инопланетного вещества в их кровь. Он начинает изучение вещества с целью использования его в своих корыстных целях. Но его методы не устраивают Ольгу. При помощи угроз он заставляет её продолжать работу, но результаты опыта оказываются весьма неожиданными…-Возраст: 16+-Качество: HDTV (1080i)
Формат: TS
Видео кодек: AVC
Аудио кодек: AC3, MPEG Audio 2

Видео: AVC, 1920 х 1080 (16:9), 25,000 кадр/сек, 9663 Кбит/сек, 0.186 bit/pixel
Аудио 1: AC3, 48000 Hz, 448 Kbps, 6 каналов
Аудио 2: MPEG Audio 2, 48000 Hz, 192 Kbps, 2 канала-

MediaInfo

Общее
Идентификатор : 1 (0x1)
Полное имя : D:\Раздачи\Контакт HDTV (1080i)\Контакт HDTV (1080i).ts
Формат : MPEG-TS
Размер файла : 7,23 Гбайт
Продолжительность : 1 ч. 35 м.
Режим общего битрейта : Переменный
Общий поток : 10,8 Мбит/сек
Видео
Идентификатор : 3531 (0xDCB)
Идентификатор меню : 17013 (0x4275)
Формат : AVC
Формат/Информация : Advanced Video Codec
Профиль формата : Main@L4
Параметр CABAC формата : Да
Параметр ReFrames формата : 4 кадра
Параметр GOP формата : M=1, N=32
Идентификатор кодека : 27
Продолжительность : 1 ч. 35 м.
Битрейт : 9663 Кбит/сек
Ширина : 1920 пикселей
Высота : 1080 пикселей
Соотношение сторон : 16:9
Частота кадров : 25,000 кадров/сек
Цветовое пространство : YUV
Субдискретизация насыщенности : 4:2:0
Битовая глубина : 8 бит
Тип развёртки : Чересстрочная
Метод сохранения типа развёртки : Раздельные поля
Порядок развёртки : Верхнее поле первое
Бит/(Пиксели*Кадры) : 0.186
Размер потока : 6,44 Гбайт (89%)
Цветовой диапазон : Limited
Основные цвета : BT.709
Характеристики трансфера : BT.709
Коэффициенты матрицы : BT.709
Аудио #1
Идентификатор : 3532 (0xDCC)
Идентификатор меню : 17013 (0x4275)
Формат : AC-3
Формат/Информация : Audio Coding 3
Расширение режима : CM (complete main)
Параметр Endianness формата : Big
Идентификатор кодека : 6
Продолжительность : 1 ч. 35 м.
Вид битрейта : Постоянный
Битрейт : 448 Кбит/сек
Каналы : 6 каналов
Расположение каналов : Front: L C R, Side: L R, LFE
Частота : 48,0 КГц
Частота кадров : 31,250 кадров/сек (1536 spf)
Метод сжатия : С потерями
Размер потока : 306 Мбайт (4%)
Язык : Russian
Аудио #2
Идентификатор : 3533 (0xDCD)
Идентификатор меню : 17013 (0x4275)
Формат : MPEG Audio
Версия формата : Version 1
Профиль формата : Layer 2
Идентификатор кодека : 3
Продолжительность : 1 ч. 35 м.
Вид битрейта : Постоянный
Битрейт : 192 Кбит/сек
Каналы : 2 канала
Частота : 48,0 КГц
Метод сжатия : С потерями
Размер потока : 131 Мбайт (2%)
Язык : Russian

Скриншоты

-Раздаю до первых 5-ти скачавших, на раздачи не возвращаюсь...-
Скачать

Скачать бесплатно и на максимальной скорости!

Как скачивать? · Что такое торрент? · Рейтинг и ограничения




Вы не можете начинать темы
Вы не можете отвечать на сообщения
Вы не можете редактировать свои сообщения
Вы не можете удалять свои сообщения
Вы не можете голосовать в опросах
Вы не можете прикреплять файлы к сообщениям
Вы не можете скачивать файлы