Запрет (Алексей Козлов) [2014, Россия, драма, военный, история, HDTV 1080i]


by Virtuoz ®
26-Мар-2018 08:24

[Цитировать]

Запрет (Алексей Козлов) [2014, Россия, драма, военный, история, HDTV 1080i]

Запрет- -Страна: Россия
Жанр: драма, военный, история
Год выпуска: 2014
Производство: «Студия «КонтАкт продакшн»»
Продолжительность: 01:28:17
Оригинальная аудиодорожка: русский
Субтитры: на иностранную речь речь-Режиссер: Алексей Козлов-В ролях:
Наталья Ткаченко, Анна Молчанова, Джулиано Ди Капуа, Сергей Яценюк, Георгий Тараторкин, Валентина Панина, Сергей Жукович, Мария Рочева, Ирина Обрезкова, Дмитрий Кочкин,
Денис Моисеев, Руслан Барабанов, Дмитрий Чудин, Вячеслав Отливанов, Сергей Евдокимов, Сергей Завьялов, Фабио Пирола, Даниил Кокин, Полина Чичканова-Описание:
История любви итальянского офицера Джакомо и православной послушницы Лоры. Идёт война, и на любовь наложен запрет. Джакомо — итальянец, и он — враг! Так рассуждает обожженный войной, непримиримый к врагу русский капитан Георгий, от любви к которому тает сердце монахини Пелагеи. Их будет четверо, загнанных войной на маленький каменный остров в Ладоге. Они все здесь, на этом камне, как у Бога на ладошке… Кому из них суждено погибнуть? Кому победить и остаться в живых?-Возраст: 16+-Качество: HDTV (1080i)
Формат: TS
Видео кодек: AVC
Аудио кодек: AC3, MPEG Audio 2

Видео: AVC, 1920 х 1080 (16:9), 25,000 кадр/сек, 8262 Кбит/сек, 0.159 bit/pixel
Аудио 1: AC3, 48000 Hz, 448 Kbps, 6 каналов
Аудио 2: MPEG Audio 2, 48000 Hz, 192 Kbps, 2 канала-

MediaInfo

Общее
Идентификатор : 1 (0x1)
Полное имя : D:\Раздачи\Запрет HDTV (1080i)\Запрет HDTV (1080i).ts
Формат : MPEG-TS
Размер файла : 5,78 Гбайт
Продолжительность : 1 ч. 28 м.
Режим общего битрейта : Переменный
Общий поток : 9372 Кбит/сек
Видео
Идентификатор : 3531 (0xDCB)
Идентификатор меню : 17013 (0x4275)
Формат : AVC
Формат/Информация : Advanced Video Codec
Профиль формата : Main@L4
Параметр CABAC формата : Да
Параметр ReFrames формата : 4 кадра
Параметр GOP формата : M=1, N=32
Идентификатор кодека : 27
Продолжительность : 1 ч. 28 м.
Битрейт : 8262 Кбит/сек
Ширина : 1920 пикселей
Высота : 1080 пикселей
Соотношение сторон : 16:9
Частота кадров : 25,000 кадров/сек
Цветовое пространство : YUV
Субдискретизация насыщенности : 4:2:0
Битовая глубина : 8 бит
Тип развёртки : Чересстрочная
Метод сохранения типа развёртки : Раздельные поля
Порядок развёртки : Верхнее поле первое
Бит/(Пиксели*Кадры) : 0.159
Размер потока : 5,10 Гбайт (88%)
Цветовой диапазон : Limited
Основные цвета : BT.709
Характеристики трансфера : BT.709
Коэффициенты матрицы : BT.709
Аудио #1
Идентификатор : 3532 (0xDCC)
Идентификатор меню : 17013 (0x4275)
Формат : AC-3
Формат/Информация : Audio Coding 3
Расширение режима : CM (complete main)
Параметр Endianness формата : Big
Идентификатор кодека : 6
Продолжительность : 1 ч. 28 м.
Вид битрейта : Постоянный
Битрейт : 448 Кбит/сек
Каналы : 6 каналов
Расположение каналов : Front: L C R, Side: L R, LFE
Частота : 48,0 КГц
Частота кадров : 31,250 кадров/сек (1536 spf)
Метод сжатия : С потерями
Размер потока : 283 Мбайт (5%)
Язык : Russian
Аудио #2
Идентификатор : 3533 (0xDCD)
Идентификатор меню : 17013 (0x4275)
Формат : MPEG Audio
Версия формата : Version 1
Профиль формата : Layer 2
Идентификатор кодека : 3
Продолжительность : 1 ч. 28 м.
Вид битрейта : Постоянный
Битрейт : 192 Кбит/сек
Каналы : 2 канала
Частота : 48,0 КГц
Метод сжатия : С потерями
Размер потока : 121 Мбайт (2%)
Язык : Russian

Скриншоты

-Раздаю до первых 5-ти скачавших, на раздачи не возвращаюсь...-
Скачать

Скачать бесплатно и на максимальной скорости!

Как скачивать? · Что такое торрент? · Рейтинг и ограничения




Вы не можете начинать темы
Вы не можете отвечать на сообщения
Вы не можете редактировать свои сообщения
Вы не можете удалять свои сообщения
Вы не можете голосовать в опросах
Вы не можете прикреплять файлы к сообщениям
Вы не можете скачивать файлы