Узник старой усадьбы (Марина Сулейманова) [2014, Россия, мелодрама, HDTV 1080i]


by Virtuoz ®
26-Мар-2018 08:24

[Цитировать]

Узник старой усадьбы (Марина Сулейманова) [2014, Россия, мелодрама, HDTV 1080i]

Узник старой усадьбы- -Страна: Россия
Жанр: мелодрама
Год выпуска: 2014
Производство: «ЕЮ МС»
Продолжительность: 01:45:01
Оригинальная аудиодорожка: русский
Субтитры: нет-Режиссер: Марина Сулейманова-В ролях:
Евгений Токарев, Сергей Шнуров, Екатерина Лещёва, Юлия Юсупова, Ксения Лаврова-Глинка, Анастасия Данилова, Станислав Бондаренко-Описание:
Вениамин устраивается на лето садовником в старинный особняк.
Юношу поселяют в полуразрушенном барском доме, где он обнаруживает незнакомого мужчину, который признаётся, что живёт в доме тайно и просит Веню не выдавать его.
Веня принимает «нелегала» за сумасшедшего, но всё оказывается куда сложнее…-Возраст: 12+-Качество: HDTV (1080i)
Формат: TS
Видео кодек: AVC
Аудио кодек: AC3, MPEG Audio 2

Видео: AVC, 1920 х 1080 (16:9), 25,000 кадр/сек, 6553 Кбит/сек, 0.126 bit/pixel
Аудио 1: AC3, 48000 Hz, 448 Kbps, 6 каналов
Аудио 2: MPEG Audio 2, 48000 Hz, 192 Kbps, 2 канала-

MediaInfo

Общее
Идентификатор : 1 (0x1)
Полное имя : D:\Раздачи\Узник старой усадьбы HDTV (1080i)\Узник старой усадьбы HDTV (1080i).ts
Формат : MPEG-TS
Размер файла : 5,56 Гбайт
Продолжительность : 1 ч. 45 м.
Режим общего битрейта : Переменный
Общий поток : 7574 Кбит/сек
Видео
Идентификатор : 3551 (0xDDF)
Идентификатор меню : 17015 (0x4277)
Формат : AVC
Формат/Информация : Advanced Video Codec
Профиль формата : Main@L4
Параметр CABAC формата : Да
Параметр ReFrames формата : 4 кадра
Параметр GOP формата : M=1, N=32
Идентификатор кодека : 27
Продолжительность : 1 ч. 45 м.
Битрейт : 6553 Кбит/сек
Ширина : 1920 пикселей
Высота : 1080 пикселей
Соотношение сторон : 16:9
Частота кадров : 25,000 кадров/сек
Цветовое пространство : YUV
Субдискретизация насыщенности : 4:2:0
Битовая глубина : 8 бит
Тип развёртки : Чересстрочная
Метод сохранения типа развёртки : Раздельные поля
Порядок развёртки : Верхнее поле первое
Бит/(Пиксели*Кадры) : 0.126
Размер потока : 4,81 Гбайт (87%)
Цветовой диапазон : Limited
Основные цвета : BT.709
Характеристики трансфера : BT.709
Коэффициенты матрицы : BT.709
Аудио #1
Идентификатор : 3552 (0xDE0)
Идентификатор меню : 17015 (0x4277)
Формат : AC-3
Формат/Информация : Audio Coding 3
Расширение режима : CM (complete main)
Параметр Endianness формата : Big
Идентификатор кодека : 6
Продолжительность : 1 ч. 45 м.
Вид битрейта : Постоянный
Битрейт : 448 Кбит/сек
Каналы : 6 каналов
Расположение каналов : Front: L C R, Side: L R, LFE
Частота : 48,0 КГц
Частота кадров : 31,250 кадров/сек (1536 spf)
Метод сжатия : С потерями
Размер потока : 337 Мбайт (6%)
Язык : Russian
Аудио #2
Идентификатор : 3553 (0xDE1)
Идентификатор меню : 17015 (0x4277)
Формат : MPEG Audio
Версия формата : Version 1
Профиль формата : Layer 2
Идентификатор кодека : 3
Продолжительность : 1 ч. 45 м.
Вид битрейта : Постоянный
Битрейт : 192 Кбит/сек
Каналы : 2 канала
Частота : 48,0 КГц
Метод сжатия : С потерями
Размер потока : 144 Мбайт (3%)
Язык : Russian

Скриншоты

-Раздаю до первых 5-ти скачавших, на раздачи не возвращаюсь...-
Скачать

Скачать бесплатно и на максимальной скорости!

Как скачивать? · Что такое торрент? · Рейтинг и ограничения




Вы не можете начинать темы
Вы не можете отвечать на сообщения
Вы не можете редактировать свои сообщения
Вы не можете удалять свои сообщения
Вы не можете голосовать в опросах
Вы не можете прикреплять файлы к сообщениям
Вы не можете скачивать файлы