Коллектор (Алексей Красовский) [2016, Россия, триллер, драма, BDRip 1080p] + Sub (Rus, Eng) + Original (Rus)


by Virtuoz ®
26-Мар-2018 08:24

[Цитировать]

Коллектор (Алексей Красовский) [2016, Россия, триллер, драма, BDRip 1080p] + Sub (Rus, Eng) + Original (Rus)

Коллектор
Страна: Россия
Студия: «Паприка Продакшн»
Жанр: Триллер, драма
Год выпуска: 2016
Продолжительность: 01:14:18
Перевод: Не требуется
Субтитры: Russian, English
Оригинальная аудиодорожка: русский
Режиссер: Алексей Красовский
В ролях: Константин Хабенский, Евгений Стычкин, Ксения Буравская, Полина Агуреева, Кирилл Плетнёв, Валентина Лукащук, Александр Тютин, Игорь Золотовицкий, Никита Тюнин, Татьяна Лазарева
Описание: Артур - мастер своего дела. Работая только с крупными должниками, он находит всю их подноготную и эффективно использует против них. Он никогда не прибегает к банальным методам, его конек - психологическая атака. Артур умеет виртуозно перевоплощаться, сбивать с толку, выводить из равновесия и так допекать своих клиентов, что они готовы вернуть все, только бы никогда больше не слышать его голос. Но однажды Артур сам становится мишенью: в сети появляется скандальное видео с его участием, и от него мгновенно отворачиваются друзья и коллеги. Под угрозой оказывается не только его репутация, но и жизнь... Теперь у коллектора есть всего одна ночь, чтобы найти того, кто загнал его в угол.

Тип релиза: BDRip 1080p
Контейнер: MKV
Видео: MPEG-4 AVC, 13,0 Мбит/сек, 1920x804, 23,976 fps
Аудио: DTS, 1509 kb/s (6 ch), 48 kHz
Формат субтитров: softsub (SRT)

MediaInfo

Общее
Уникальный идентификатор : 215881197197626391820825231512681103300 (0xA26934CA43A58F6DBF51356AEF80BFC4)
Полное имя : E:\Collector.2016.1080p.BluRay.Rus.HDCLUB.mkv
Формат : Matroska
Версия формата : Version 2
Размер файла : 7,53 Гбайт
Продолжительность : 1 ч. 14 м.
Общий поток : 14,5 Мбит/сек
Название фильма : Collector (2016) - Release for HDCLUB
Дата кодирования : UTC 2016-11-25 12:32:15
Программа кодирования : mkvmerge v5.8.0 ('No Sleep / Pillow') built on Sep 2 2012 15:37:04
Библиотека кодирования : libebml v1.2.3 + libmatroska v1.3.0
Обложка : Yes
Attachments : cover.jpg / logfile.log
Видео
Идентификатор : 1
Формат : AVC
Формат/Информация : Advanced Video Codec
Профиль формата : High@L4.1
Параметр CABAC формата : Да
Параметр ReFrames формата : 5 кадров
Идентификатор кодека : V_MPEG4/ISO/AVC
Продолжительность : 1 ч. 14 м.
Битрейт : 13,0 Мбит/сек
Ширина : 1920 пикселей
Высота : 804 пикселя
Соотношение сторон : 2,40:1
Режим частоты кадров : Постоянный
Частота кадров : 23,976 (24000/1001) кадра/сек
Цветовое пространство : YUV
Субдискретизация насыщенности : 4:2:0
Битовая глубина : 8 бит
Тип развёртки : Прогрессивная
Бит/(Пиксели*Кадры) : 0.351
Размер потока : 6,59 Гбайт (88%)
Заголовок : Collector (2016) - Release for HDCLUB
Библиотека кодирования : x264 core 148 r2721 72d53ab
Настройки программы : cabac=1 / ref=5 / deblock=1:-3:-3 / analyse=0x3:0x133 / me=umh / subme=11 / psy=1 / psy_rd=1.00:0.00 / mixed_ref=1 / me_range=32 / chroma_me=1 / trellis=2 / 8x8dct=1 / cqm=0 / deadzone=21,11 / fast_pskip=0 / chroma_qp_offset=-2 / threads=12 / lookahead_threads=3 / sliced_threads=0 / nr=0 / decimate=0 / interlaced=0 / bluray_compat=0 / constrained_intra=0 / bframes=10 / b_pyramid=2 / b_adapt=2 / b_bias=0 / direct=3 / weightb=1 / open_gop=0 / weightp=2 / keyint=240 / keyint_min=23 / scenecut=40 / intra_refresh=0 / rc_lookahead=50 / rc=2pass / mbtree=0 / bitrate=13000 / ratetol=1.0 / qcomp=0.60 / qpmin=0 / qpmax=69 / qpstep=4 / cplxblur=20.0 / qblur=0.5 / vbv_maxrate=62500 / vbv_bufsize=78125 / nal_hrd=none / filler=0 / ip_ratio=1.40 / pb_ratio=1.30 / aq=1:0.70
Язык : Russian
Default : Да
Forced : Нет
Аудио
Идентификатор : 2
Формат : DTS
Формат/Информация : Digital Theater Systems
Режим : 16
Параметр Endianness формата : Big
Идентификатор кодека : A_DTS
Продолжительность : 1 ч. 14 м.
Вид битрейта : Постоянный
Битрейт : 1509 Кбит/сек
Каналы : 6 каналов
Расположение каналов : Front: L C R, Side: L R, LFE
Частота : 48,0 КГц
Частота кадров : 93,750 кадра/сек (512 spf)
Битовая глубина : 24 бит
Метод сжатия : С потерями
Размер потока : 802 Мбайт (10%)
Заголовок : DTS 5.1 @ 1509 kbps
Язык : Russian
Default : Да
Forced : Нет
Текст #1
Идентификатор : 3
Формат : UTF-8
Идентификатор кодека : S_TEXT/UTF8
Идентификатор кодека/Информация : UTF-8 Plain Text
Заголовок : Russian
Язык : Russian
Default : Нет
Forced : Нет
Текст #2
Идентификатор : 4
Формат : UTF-8
Идентификатор кодека : S_TEXT/UTF8
Идентификатор кодека/Информация : UTF-8 Plain Text
Заголовок : English
Язык : English
Default : Нет
Forced : Нет
Меню
00:00:00.000 : :Chapter 01
00:00:38.955 : :Chapter 02
00:07:29.866 : :Chapter 03
00:14:41.547 : :Chapter 04
00:23:41.920 : :Chapter 05
00:33:21.124 : :Chapter 06
00:41:10.885 : :Chapter 07
00:50:14.803 : :Chapter 08
01:00:29.876 : :Chapter 09

Скриншоты

Скачать

Скачать бесплатно и на максимальной скорости!

Как скачивать? · Что такое торрент? · Рейтинг и ограничения




Вы не можете начинать темы
Вы не можете отвечать на сообщения
Вы не можете редактировать свои сообщения
Вы не можете удалять свои сообщения
Вы не можете голосовать в опросах
Вы не можете прикреплять файлы к сообщениям
Вы не можете скачивать файлы