Призрак (Александр Войтинский) [2015, Россия, комедия, семейный, фантастика, HDTV 1080i]


Размер:  4.04 GB   |    Зарегистрирован:  4 месяца 23 дня   |    Скачан:  0 раз

Полного источника не было: Никогда

by Virtuoz ®
26-Мар-2018 05:24

[Цитировать]

Призрак (Александр Войтинский) [2015, Россия, комедия, семейный, фантастика, HDTV 1080i]

Призрак
Страна: Россия
Жанр: комедия, семейный, фантастика
Год выпуска: 2015
Продолжительность: 01:44:39
Перевод: Не требуется
Субтитры: нет
Режиссер: Александр Войтинский
В ролях: Фёдор Бондарчук, Семен Трескунов, Ян Цапник, Анна Антонова, Игорь Угольников, Ксения Лаврова-Глинка, Софья Райзман, Ани Петросян, Алексей Лукин, Ольга Кузьмина
Описание: Еще вчера Юрий Гордеев — амбициозный авиаконструктор и любимец женщин — был в шаге от своего триумфа. Его самолет ЮГ-1 должен был стать настоящим прорывом в отечественной авиации. Но сегодня его никто не видит и не слышит, и конкурент по бизнесу беспрепятственно закрывает его компанию. Все потому, что Юра разбился в автокатастрофе и стал призраком.
Школьник Ваня Кузнецов был пустым местом всегда. Жертва гиперопеки матери, объект насмешек одноклассников, он боится даже заговорить с девочкой, в которую давно влюблен. У Юры есть неделя, чтобы закончить дело своей жизни и поднять самолет в воздух. Ваня — единственный, кто его видит и может ему помочь.
Сэмпл: http://multi-up.com/1127869
Тип релиза: HDTV 1080i
Контейнер: TS
Видео: AVC at 5059 Кбит/сек Aspect : 1920 x 1080 (1.778) at 25.000 fps
Аудио: MPEG Audio at 192 Кбит/сек Infos : 2 канала, 48,0 КГц

MediaInfo

Общее
Идентификатор : 1 (0x1)
Полное имя : E:\CINEMA\Домашний медиа-сервер\Призрак.2015.HDTV 1080i.Doc66.ts
Формат : MPEG-TS
Размер файла : 4,04 Гбайт
Продолжительность : 1 ч. 44 м.
Режим общего битрейта : Переменный
Общий поток : 5526 Кбит/сек
Видео
Идентификатор : 205 (0xCD)
Идентификатор меню : 2205 (0x89D)
Формат : AVC
Формат/Информация : Advanced Video Codec
Профиль формата : High@L4
Параметр CABAC формата : Да
Параметр ReFrames формата : 4 кадра
Параметр GOP формата : M=4, N=28
Идентификатор кодека : 27
Продолжительность : 1 ч. 44 м.
Битрейт : 5059 Кбит/сек
Ширина : 1920 пикселей
Высота : 1080 пикселей
Соотношение сторон : 16:9
Частота кадров : 25,000 кадров/сек
Стандарт вещания : Component
Цветовое пространство : YUV
Субдискретизация насыщенности : 4:2:0
Битовая глубина : 8 бит
Тип развёртки : Чересстрочная
Порядок развёртки : Верхнее поле первое
Бит/(Пиксели*Кадры) : 0.098
Размер потока : 3,70 Гбайт (92%)
Цветовой диапазон : Limited
Основные цвета : BT.709
Характеристики трансфера : BT.709
Коэффициенты матрицы : BT.709
Аудио
Идентификатор : 305 (0x131)
Идентификатор меню : 2205 (0x89D)
Формат : MPEG Audio
Версия формата : Version 1
Профиль формата : Layer 2
Идентификатор кодека : 3
Продолжительность : 1 ч. 44 м.
Вид битрейта : Постоянный
Битрейт : 192 Кбит/сек
Каналы : 2 канала
Частота : 48,0 КГц
Метод сжатия : С потерями
Размер потока : 144 Мбайт (3%)
Язык : Russian

Скриншоты







Вы не можете начинать темы
Вы не можете отвечать на сообщения
Вы не можете редактировать свои сообщения
Вы не можете удалять свои сообщения
Вы не можете голосовать в опросах
Вы не можете прикреплять файлы к сообщениям
Вы можете скачивать файлы