На качелях судьбы / Серии: 1-4 из 4 (Валерий Ибрагимов) [2018, мелодрама, HDTVRip 720p]


by Boris G ®
23-Дек-2018 15:27

[Цитировать]

На качелях судьбы / Серии: 1-4 из 4 (Валерий Ибрагимов) [2018, мелодрама, HDTVRip 720p]

На качелях судьбы
Год выпуска: 2018
Производство: Студия «СВО»
Жанр: мелодрама
Продолжительность: ~00:52:00 серия
Субтитры: нет
Режиссёр: Валерий Ибрагимов
В ролях: Евгения Лоза, Антон Батырев, Дмитрий Пчела, Лариса Удовиченко, Алёна Яковлева, Ева Шевченко-Головко, Зоя Барановская, Валерия Гуляева, Сергей Шляхтюк, Пётр Крылов (II), Иван Залуский, Николай Боклан, Павел Алдошин, Олег Замятин, Елена Колесниченко
Описание: У Катерины — хорошая семья: муж Алексей и дочь Оксана. Однако счастье оказывается недолговечным. Она уличает Алексея в измене сгоряча подает на развод. Попытки Алексея доказать свою невиновность и помириться ни к чему не приводят. По настоянию Кати он уходит из семьи, а затем, тяготясь разлукой с любимой женщиной и не менее любимой дочерью, уезжает на опасную работу в горы. Катя пытается начать жизнь с чистого листа. За ней ухаживает друг детства Феликс, давно и безнадежно в нее влюбленный. Катя делает над собой усилие, чтобы забыть об Алексее, но скоро понимает, что это невозможно…

Реклама: Нет.
Кинопоиск
Все раздачи сериала
Sample
Качество: HDTVRip 720p - Nikolspup
Формат: MKV
Видео кодек: H.264
Аудио кодек: AC3
Видео: MPEG4 AVC Video, H264, 16:9, 1280x720, 25 fps, ~4000 kbps, 0.174 bit/pixel
Аудио: AC3 Dolby Digital, 48 kHz, 2/0 (L,R) ch, 192 kbp

MI

General
Unique ID : 206134676681336998246874130013269669684 (0x9B14183A4EF8A5ECBC328937D64A3734)
Complete name : D:\Na.kachelyah.sudby.2018.HDTVRip.(720p).Nikolspup\Na.kachelyah.sudby.(01.seriya.iz.04).2018.HDTVRip.(720p).Nikolspup.mkv
Format : Matroska
Format version : Version 4 / Version 2
File size : 1.54 GiB
Duration : 52mn 24s
Overall bit rate : 4 194 Kbps
Encoded date : UTC 2018-09-09 16:42:45
Writing application : mkvmerge v7.8.0 ('River Man') 32bit built on Mar 27 2015 16:18:02
Writing library : libebml v1.3.1 + libmatroska v1.4.2
DURATION : 00:52:24.640000000
NUMBER_OF_FRAMES : 98270
NUMBER_OF_BYTES : 75471360
_STATISTICS_WRITING_APP : mkvmerge v7.8.0 ('River Man') 32bit built on Mar 27 2015 16:18:02
_STATISTICS_WRITING_DATE_UTC : 2018-09-09 16:42:45
_STATISTICS_TAGS : BPS DURATION NUMBER_OF_FRAMES NUMBER_OF_BYTES
Video
ID : 1
Format : AVC
Format/Info : Advanced Video Codec
Format profile : High@L4.1
Format settings, CABAC : Yes
Format settings, ReFrames : 9 frames
Codec ID : V_MPEG4/ISO/AVC
Duration : 52mn 24s
Bit rate : 4 000 Kbps
Width : 1 280 pixels
Height : 720 pixels
Display aspect ratio : 16:9
Frame rate mode : Constant
Frame rate : 25.000 fps
Color space : YUV
Chroma subsampling : 4:2:0
Bit depth : 8 bits
Scan type : Progressive
Bits/(Pixel*Frame) : 0.174
Stream size : 1.43 GiB (93%)
Writing library : x264 core 146 r2538 121396c
Encoding settings : cabac=1 / ref=9 / deblock=1:-2:-1 / analyse=0x3:0x133 / me=umh / subme=9 / psy=1 / psy_rd=1.00:0.20 / mixed_ref=1 / me_range=32 / chroma_me=1 / trellis=2 / 8x8dct=1 / cqm=0 / deadzone=21,11 / fast_pskip=1 / chroma_qp_offset=-3 / threads=16 / lookahead_threads=8 / sliced_threads=0 / nr=0 / decimate=1 / interlaced=0 / bluray_compat=0 / constrained_intra=0 / bframes=11 / b_pyramid=2 / b_adapt=2 / b_bias=0 / direct=1 / weightb=1 / open_gop=0 / weightp=2 / keyint=250 / keyint_min=25 / scenecut=40 / intra_refresh=0 / rc=2pass / mbtree=0 / bitrate=4000 / ratetol=1.0 / qcomp=0.60 / qpmin=0 / qpmax=69 / qpstep=4 / cplxblur=20.0 / qblur=0.5 / ip_ratio=1.40 / pb_ratio=1.30 / aq=3:1.00
Default : No
Forced : No
DURATION : 00:52:24.600000000
NUMBER_OF_FRAMES : 78615
NUMBER_OF_BYTES : 1572199490
_STATISTICS_WRITING_APP : mkvmerge v7.8.0 ('River Man') 32bit built on Mar 27 2015 16:18:02
_STATISTICS_WRITING_DATE_UTC : 2018-09-09 16:42:45
_STATISTICS_TAGS : BPS DURATION NUMBER_OF_FRAMES NUMBER_OF_BYTES
Color primaries : BT.709
Transfer characteristics : BT.709
Matrix coefficients : BT.709
Audio
ID : 2
Format : AC-3
Format/Info : Audio Coding 3
Mode extension : CM (complete main)
Format settings, Endianness : Big
Codec ID : A_AC3
Duration : 52mn 24s
Bit rate mode : Constant
Bit rate : 192 Kbps
Channel count : 2 channels
Channel positions : Front: L R
Sampling rate : 48.0 KHz
Bit depth : 16 bits
Compression mode : Lossy
Stream size : 72.0 MiB (5%)
Language : Russian
Default : Yes
Forced : Yes

Скриншоты


Скачать

Скачать бесплатно и на максимальной скорости!

Как скачивать? · Что такое торрент? · Рейтинг и ограничения




Вы не можете начинать темы
Вы не можете отвечать на сообщения
Вы не можете редактировать свои сообщения
Вы не можете удалять свои сообщения
Вы не можете голосовать в опросах
Вы не можете прикреплять файлы к сообщениям
Вы не можете скачивать файлы