Десять негритят (Станислав Говорухин) [1987, СССР, детектив, HDTVRip 720p]


by Virtuoz ®
26-Мар-2018 08:24

[Цитировать]

Десять негритят (Станислав Говорухин) [1987, СССР, детектив, HDTVRip 720p]

Десять негритят
Страна: СССР
Студия: Одесская киностудия
Жанр: Детектив
Год выпуска: 1987
Продолжительность: 02:08:14
Оригинальная аудиодорожка: русский
Режиссер: Станислав Говорухин
В ролях: Владимир Зельдин, Татьяна Друбич, Александр Кайдановский, Алексей Жарков, Анатолий Ромашин, Людмила Максакова, Михаил Глузский, Алексей Золотницкий, Ирина Терещенко, Александр Абдулов, Вячеслав Жариков, Фёдор Одиноков, Владимир Жариков
Описание: Несколько человек, никогда ранее не встречавшихся друг с другом, приезжают на уединённый Негритянский остров. Это люди из самых разных слоёв общества. Большинство приехало по приглашению, присланному от некого А. Н. Оуэна. Приехав, они с удивлением обнаруживают, что хозяина, приславшего приглашение, на острове нет, а в доме хозяйничают слуги, не имеющие представления, кто их нанял. Из-за испортившейся погоды связь с материком прерывается; лодка, привёзшая их, не возвращается. Приехавшие размещаются в доме в ожидании того, что ситуация прояснится. На первом же совместном обеде начинается необъяснимое: вдруг незнакомый голос стал зачитывать обвинение, по которому каждый из присутствующих обвиняется в убийстве одного или нескольких людей, которое он, по словам говорящего, совершил в прошлом. Оказывается, что это говорил граммофон, установленный за шторой, а обращение записано на пластинку. Во всех спальнях дома на стене висит табличка с детской считалочкой про десять негритят, которые по одному погибают различным образом. Постепенно каждый из приглашенных умирает смертью, которая соответствует очередной строчке из считалки. После каждой смерти с подноса пропадает одна фигурка. Никаких сомнений быть не может – на острове действует маньяк, решивший уничтожить приглашённых. Попытка обыскать остров ни к чему не приводит. Гостям становится ясно, что убийца – один из них. Взаимные подозрения нарастают по мере того, как умирают люди. Постепенно выясняется, что все высказанные против приглашённых обвинения – правда. Никто из них так и не узнал, что истинный убийца - судья Уоргрейв, решивший свершить истинное правосудие по точно задуманному плану, в том числе и над самим собой.
Доп. информация: Исходник - запись с первого канала в формате HDTV 1080i объёмом 13.28 ГБ. Звук взят с исходника без каких-либо изменений.
Сэмпл: http://multi-up.com/1127597
Тип релиза: HDTVRip 720p
Контейнер: MKV
Видео: H.264 AVC, 976x720, 25 к/с, 4351 Кбит/сек
Аудио: MP2; 48.0 кГц; 192 Кбит/сек; 2 канала

MediaInfo

Общее
Уникальный идентификатор : 196444167092486857291254132621499507132 (0x93C9C537A5C099A5BF2B484E289D21BC)
Полное имя : Десять негритят 1987 720p.mkv
Формат : Matroska
Версия формата : Version 2
Размер файла : 4,15 Гбайт
Продолжительность : 2 ч. 8 м.
Общий поток : 4637 Кбит/сек
Программа кодирования : mkvmergev 5.8.0
Библиотека кодирования : libebml v1.2.3 + libmatroska v1.3.0
Видео
Идентификатор : 1
Формат : AVC
Формат/Информация : Advanced Video Codec
Профиль формата : High@L4.1
Параметр CABAC формата : Да
Параметр ReFrames формата : 4 кадра
Идентификатор кодека : V_MPEG4/ISO/AVC
Продолжительность : 2 ч. 8 м.
Битрейт : 4351 Кбит/сек
Ширина : 976 пикселей
Высота : 720 пикселей
Режим частоты кадров : Постоянный
Частота кадров : 25,000 кадров/сек
Цветовое пространство : YUV
Субдискретизация насыщенности : 4:2:0
Битовая глубина : 8 бит
Тип развёртки : Прогрессивная
Бит/(Пиксели*Кадры) : 0.495
Размер потока : 3,90 Гбайт (94%)
Библиотека кодирования : x264
Настройки программы : cabac=1 / ref=4 / deblock=1:-1:-1 / analyse=0x3:0x133 / me=umh / subme=7 / psy=1 / psy_rd=1.00:0.10 / mixed_ref=1 / me_range=16 / chroma_me=1 / trellis=2 / 8x8dct=1 / cqm=0 / deadzone=21,11 / fast_pskip=0 / chroma_qp_offset=-3 / threads=12 / lookahead_threads=2 / sliced_threads=0 / nr=0 / decimate=1 / interlaced=0 / bluray_compat=0 / constrained_intra=0 / bframes=9 / b_pyramid=2 / b_adapt=2 / b_bias=0 / direct=3 / weightb=1 / open_gop=0 / weightp=2 / keyint=250 / keyint_min=12 / scenecut=40 / intra_refresh=0 / rc_lookahead=50 / rc=2pass / mbtree=1 / bitrate=2222 / ratetol=1.0 / qcomp=0.60 / qpmin=0 / qpmax=69 / qpstep=4 / cplxblur=20.0 / qblur=0.5 / ip_ratio=1.40 / aq=1:1.00
Default : Да
Forced : Нет
Аудио
Идентификатор : 2
Формат : MPEG Audio
Версия формата : Version 1
Профиль формата : Layer 2
Идентификатор кодека : A_MPEG/L2
Идентификатор кодека/Подсказка : MP2
Продолжительность : 2 ч. 8 м.
Вид битрейта : Постоянный
Битрейт : 192 Кбит/сек
Каналы : 2 канала
Частота : 48,0 КГц
Метод сжатия : С потерями
Размер потока : 176Мбайт(4%)
Default : Да
Forced : Нет

Скриншоты



Скачать

Скачать бесплатно и на максимальной скорости!

Как скачивать? · Что такое торрент? · Рейтинг и ограничения




Вы не можете начинать темы
Вы не можете отвечать на сообщения
Вы не можете редактировать свои сообщения
Вы не можете удалять свои сообщения
Вы не можете голосовать в опросах
Вы не можете прикреплять файлы к сообщениям
Вы не можете скачивать файлы