Улица / Сезон: 3 / Серии: 1-66 из 66 (Жанна Кадникова, Николай Бурлак, Михаил Соловьёв) [2018, драма, мелодрама, комедия, WEBRip]


by Boris G ®
23-Дек-2018 15:27

[Цитировать]

Улица / Сезон: 3 / Серии: 1-66 из 66 (Жанна Кадникова, Николай Бурлак, Михаил Соловьёв) [2018, драма, мелодрама, комедия, WEBRip]

Улица
Год выпуска: 2018
Производство: Good Story Media
Жанр: драма, мелодрама, комедия
Продолжительность: ~00:24:00 серия
Субтитры: нет
Режиссёр: Жанна Кадникова, Николай Бурлак, Михаил Соловьёв
В ролях: Ольга Баранова, Владимир Хацкевич, Екатерина Седик, Павел Савинков, Сергей Змичеревский, Артемий Падалка, Марина Богатова, Ксения Жданова, Марта Дромашко, Александр Терехов, Софья Реснянская
Описание: «Улица» — это история жителей одной из улиц спального района большого города. Школьники и студенты, домохозяйки и продавцы, олигархи и простые рабочие — здесь встретятся более 30 персонажей разного возраста и социального статуса, у каждого из них своя история. В большой Вселенной «Улицы» нет главных и второстепенных героев, здесь есть бурная жизнь с ее радостями, горестями, казусами и косяками, страхами, любовными переживаниями и трагедиями. Это история про всех нас и наших соседей.

Реклама: Нет.

Все раздачи сериала
Sample
Качество: WEBRip - 25Kuzmich
Формат: AVI
Видео кодек: XviD
Аудио кодек: AC3
Видео: 720x400 (1.80:1), 25 fps, XviD ~1650 kbps avg, 0.229 bit/pixel
Аудио: 48.0 kHz, AC3 Dolby Digital, 2/0 (L,R) ch, ~ 192 kbps

Внимание! Раздача ведётся путём добавления новых серий

Раздача ведётся путём добавления новых серий, при каждом добавлении создаётся новый торрент. Чтобы начать докачку новой серии, пользователям необходимо сделать следующее:
- Остановить скачивание.
- Удалить старый торрент у себя из клиента (старые серии удалять не надо).
- Скачать новый торрент и запустить его у себя в клиенте вместо старого, при этом указать клиенту путь в старую папку куда и должно происходить скачивание новых серий.
Ваш клиент при этом должен произвести хеширование (проверку) старой папки (если не производит сам - помогите ему сделать это), и будет докачивать только те серии которых у вас ещё нет. Старые серии при этом не удаляются, а продолжают раздаваться!
Если вы уже удалили старые серии, то предотвратить повторную закачку старых серий можно, отжав галочку в соответствующих местах при запуске нового торрента. По возможности, желательно не удалять старые серии как можно дольше, чтобы релизер не столько продолжал раздавать старые серии, а смог сконцентрироваться на новых.

MI

General
Complete name : D:\Ulica.S03.WEB-DLRip.25Kuzmich\Ulica.s03e01.WEB-DLRip.25Kuzmich.avi
Format : AVI
Format/Info : Audio Video Interleave
File size : 267 MiB
Duration : 20mn 10s
Overall bit rate : 1 852 Kbps
Writing application : VirtualDubMod 1.5.10.3 | www.virtualdub-fr.org || (build 2550/release)
Writing library : VirtualDubMod build 2550/release
Video
ID : 0
Format : MPEG-4 Visual
Format profile : Advanced Simple@L5
Format settings, BVOP : 1
Format settings, QPel : No
Format settings, GMC : No warppoints
Format settings, Matrix : Default (MPEG)
Codec ID : XVID
Codec ID/Hint : XviD
Duration : 20mn 10s
Bit rate : 1 650 Kbps
Width : 720 pixels
Height : 400 pixels
Display aspect ratio : 16:9
Frame rate : 25.000 fps
Color space : YUV
Chroma subsampling : 4:2:0
Bit depth : 8 bits
Scan type : Progressive
Compression mode : Lossy
Bits/(Pixel*Frame) : 0.229
Stream size : 238 MiB (89%)
Writing library : XviD 1.2.1 (UTC 2008-12-04)
Audio
ID : 1
Format : AC-3
Format/Info : Audio Coding 3
Mode extension : CM (complete main)
Format settings, Endianness : Big
Codec ID : 2000
Duration : 20mn 9s
Bit rate mode : Constant
Bit rate : 192 Kbps
Channel count : 2 channels
Channel positions : Front: L R
Sampling rate : 48.0 KHz
Bit depth : 16 bits
Compression mode : Lossy
Stream size : 27.7 MiB (10%)
Alignment : Split accross interleaves
Interleave, duration : 40 ms (1.00 video frame)
Interleave, preload duration : 500 ms

Скриншоты


Скачать

Скачать бесплатно и на максимальной скорости!

Как скачивать? · Что такое торрент? · Рейтинг и ограничения




Вы не можете начинать темы
Вы не можете отвечать на сообщения
Вы не можете редактировать свои сообщения
Вы не можете удалять свои сообщения
Вы не можете голосовать в опросах
Вы не можете прикреплять файлы к сообщениям
Вы не можете скачивать файлы