Москва, я терплю тебя (Сергей Аксёнов) [2016, Россия, драма, комедия, WEB-DL 1080p]


by Virtuoz ®
26-Мар-2018 08:24

[Цитировать]

Москва, я терплю тебя (Сергей Аксёнов) [2016, Россия, драма, комедия, WEB-DL 1080p]

Москва, я терплю тебя- -Страна: Россия
Жанр: драма, комедия
Год выпуска: 2016
Производство: «Люксор Дистрибьюшн»
Продолжительность: 01:32:59
Оригинальная аудиодорожка: русский
Субтитры: нет-Режиссер: Сергей Аксёнов-В ролях:
Илья Ермолов, Евгений Морозов, Николай Орловский, Лина Шишова, Марина Забелина, Евгений Волоцкий, Денис Шведов, Ольга Кавалай-Аксёнова, Дмитрий Супонин, Ульяна Урванцева-Описание:
Москва. Редкий солнечный день. Александр надеется отдохнуть от рабочей суеты и заняться любимым делом. Однако клиенты требуют встреч, а девушка жаждет похода по магазинам.
Вдобавок ко всему, на один день из Гомеля, приезжает бывший одноклассник, который, во что бы то ни стало, хочет выпить с Саней пиво. Да к тому же, срочно требуется помощь ещё одному другу.
А тут, вдруг, к одной из клиенток вспыхивает любовь. А приехавший одноклассник внезапно рушит все планы. И всё это за один день. Оказывается, в бешеном водовороте столичной жизни, очень легко потерять себя. Либо наоборот, найти.-Возраст: 16+-Качество: WEB-DL 1080p
Формат: MKV
Видео кодек: AVC
Аудио кодек: AC3

Видео: AVC, 1920 х 804 (16:9), 25,000 кадр/сек, 4 839 Кбит/сек, 0.125 bit/pixel
Аудио: AC3, 48000 Hz, 384 Kbps, 6 каналов-

MediaInfo

General
Unique ID : 191801011800533563382827095167199781191 (0x904B87FCA90FD7ACBDE562487A7AA147)
Complete name : D:\Раздачи\Москва, я терплю тебя WEB-DL (1080p)\Москва, я терплю тебя WEB-DL (1080p).mkv
Format : Matroska
Format version : Version 2
File size : 3.46 GiB
Duration : 1h 32mn
Overall bit rate : 5 329 Kbps
Movie name : Moskva ya terplyu tebya (2016) - Release for HDCLUB
Encoded date : UTC 2016-11-13 19:57:48
Writing application : mkvmerge v3.4.0 ('Rapunzel') built on May 15 2010 09:38:20
Writing library : libebml v0.8.0 + libmatroska v0.9.0
Video
ID : 1
Format : AVC
Format/Info : Advanced Video Codec
Format profile : High@L4
Format settings, CABAC : Yes
Format settings, ReFrames : 5 frames
Codec ID : V_MPEG4/ISO/AVC
Duration : 1h 32mn
Bit rate : 4 839 Kbps
Width : 1 920 pixels
Height : 804 pixels
Display aspect ratio : 2.40:1
Frame rate mode : Constant
Frame rate : 25.000 fps
Color space : YUV
Chroma subsampling : 4:2:0
Bit depth : 8 bits
Scan type : Progressive
Bits/(Pixel*Frame) : 0.125
Stream size : 3.14 GiB (91%)
Title : Moskva ya terplyu tebya (2016) - Release for HDCLUB
Language : Russian
Default : Yes
Forced : No
Color range : Limited
Color primaries : BT.709
Transfer characteristics : BT.709
Matrix coefficients : BT.709
Audio
ID : 2
Format : AC-3
Format/Info : Audio Coding 3
Mode extension : CM (complete main)
Format settings, Endianness : Big
Codec ID : A_AC3
Duration : 1h 32mn
Bit rate mode : Constant
Bit rate : 384 Kbps
Channel(s) : 6 channels
Channel positions : Front: L C R, Side: L R, LFE
Sampling rate : 48.0 KHz
Frame rate : 31.250 fps (1536 spf)
Compression mode : Lossy
Stream size : 255 MiB (7%)
Title : AC3 5.1 @ 384 kbps
Language : Russian
Default : Yes
Forced : No
Menu
00:00:00.000 : en:1
00:05:17.480 : en:2
00:11:04.320 : en:3
00:18:16.080 : en:4
00:24:15.880 : en:5
00:30:14.000 : en:6
00:36:50.160 : en:7
00:44:07.480 : en:8
00:49:44.560 : en:9
00:56:20.640 : en:10
01:02:17.200 : en:11
01:08:43.800 : en:12
01:15:23.640 : en:13
01:22:48.680 : en:14

Скриншоты

-Раздаю до первых 5-ти скачавших, на раздачи не возвращаюсь...-
Скачать

Скачать бесплатно и на максимальной скорости!

Как скачивать? · Что такое торрент? · Рейтинг и ограничения




Вы не можете начинать темы
Вы не можете отвечать на сообщения
Вы не можете редактировать свои сообщения
Вы не можете удалять свои сообщения
Вы не можете голосовать в опросах
Вы не можете прикреплять файлы к сообщениям
Вы не можете скачивать файлы