Петербург. Только по любви (Аксинья Гог, Наталья Назарова, Оксана Бычкова, Наталья Кудряшова, Анна Пармас, Авдотья Смирнова, Рената Литвинова) [2016, Россия, комедия, мелодрама, WEB-DL 1080p]


by Virtuoz ®
26-Мар-2018 08:24

[Цитировать]

Петербург. Только по любви (Аксинья Гог, Наталья Назарова, Оксана Бычкова, Наталья Кудряшова, Анна Пармас, Авдотья Смирнова, Рената Литвинова) [2016, Россия, комедия, мелодрама, WEB-DL 1080p]

Петербург. Только по любви- -Страна: Россия
Жанр: комедия, мелодрама
Год выпуска: 2016
Производство: «Кинокомпания СТВ, Глобус, Ленфильм»
Продолжительность: 01:51:08
Оригинальная аудиодорожка: русский
Субтитры: нет-Режиссер: Аксинья Гог, Наталья Назарова, Оксана Бычкова, Наталья Кудряшова, Анна Пармас, Авдотья Смирнова, Рената Литвинова-В ролях:
Рената Литвинова, Анна Михалкова, Надежда Маркина, Анна Уколова, Полина Кутепова,
Светлана Камынина, Александр Паль, Михаил Боярский, Максим Виторган, Ульяна Добровская-Описание:
В Петербурге легко почувствовать себя влюбленным. Здесь запросто решаются на авантюры, вмиг меняют рабочий комбинезон на вечернее платье и готовы доверить свою судьбу шаману.
В этом городе иногда кажется, что если прыгнуть с крыши, то можно взлететь, что бронзовые скульптуры вот-вот оживут, а Иосифа Бродского еще можно спасти, если снять про него кино.-Возраст: 16+-Качество: WEB-DL 1080p
Формат: MKV
Видео кодек: AVC
Аудио кодек: AC3

Видео: AVC, 1920 х 1 038 (16:9), 25,000 кадр/сек, 5 150 Кбит/сек, 0.108 bit/pixel
Аудио: AC3, 48000 Hz, 384 Kbps, 6 каналов-

MediaInfo

General
Unique ID : 194235192245127453569965193054438221274 (0x9220565948C79E28A25D929502DAE5DA)
Complete name : D:\Раздачи\Петербург. Только по любви WEB-DL (1080p)\Петербург. Только по любви WEB-DL (1080p).mkv
Format : Matroska
Format version : Version 2
File size : 4.30 GiB
Duration : 1h 51mn
Overall bit rate : 5 536 Kbps
Encoded date : UTC 2016-11-02 18:33:43
Writing application : mkvmerge v8.3.0 ('Over the Horizon') 64bit
Writing library : libebml v1.3.1 + libmatroska v1.4.2
Video
ID : 1
Format : AVC
Format/Info : Advanced Video Codec
Format profile : High@L4
Format settings, CABAC : Yes
Format settings, ReFrames : 4 frames
Codec ID : V_MPEG4/ISO/AVC
Duration : 1h 51mn
Bit rate : 5 150 Kbps
Width : 1 920 pixels
Height : 1 038 pixels
Display aspect ratio : 1.85:1
Frame rate mode : Constant
Frame rate : 24.000 fps
Color space : YUV
Chroma subsampling : 4:2:0
Bit depth : 8 bits
Scan type : Progressive
Bits/(Pixel*Frame) : 0.108
Stream size : 4.00 GiB (93%)
Language : English
Default : Yes
Forced : No
Color range : Limited
Color primaries : BT.709
Transfer characteristics : BT.709
Matrix coefficients : BT.709
Audio
ID : 2
Format : AC-3
Format/Info : Audio Coding 3
Mode extension : CM (complete main)
Format settings, Endianness : Big
Codec ID : A_AC3
Duration : 1h 51mn
Bit rate mode : Constant
Bit rate : 384 Kbps
Channel(s) : 6 channels
Channel positions : Front: L C R, Side: L R, LFE
Sampling rate : 48.0 KHz
Frame rate : 31.250 fps (1536 spf)
Compression mode : Lossy
Stream size : 305 MiB (7%)
Language : Russian
Default : Yes
Forced : No
Menu
00:00:00.000 : en:Глава 1
00:05:40.375 : en:Глава 2
00:13:28.250 : en:Глава 3
00:21:10.750 : en:Глава 4
00:27:16.625 : en:Глава 5
00:33:46.708 : en:Глава 6
00:38:54.791 : en:Глава 7
00:45:04.291 : en:Глава 8
00:51:29.291 : en:Глава 9
00:57:40.749 : en:Глава 10
01:04:56.874 : en:Глава 11
01:12:29.582 : en:Глава 12
01:19:55.665 : en:Глава 13
01:26:33.915 : en:Глава 14
01:32:42.790 : en:Глава 15
01:38:10.290 : en:Глава 16
01:43:29.248 : en:Глава 17

Скриншоты

-Раздаю до первых 5-ти скачавших, на раздачи не возвращаюсь...-
Скачать

Скачать бесплатно и на максимальной скорости!

Как скачивать? · Что такое торрент? · Рейтинг и ограничения




Вы не можете начинать темы
Вы не можете отвечать на сообщения
Вы не можете редактировать свои сообщения
Вы не можете удалять свои сообщения
Вы не можете голосовать в опросах
Вы не можете прикреплять файлы к сообщениям
Вы не можете скачивать файлы