Свадьба в Малиновке (Андрей Тутышкин) [1967, СССР, мюзикл, комедия, военный, BDRip 1080p] Original Rus + Sub Rus, Eng


by Virtuoz ®
26-Мар-2018 08:24

[Цитировать]

Свадьба в Малиновке (Андрей Тутышкин) [1967, СССР, мюзикл, комедия, военный, BDRip 1080p] Original Rus + Sub Rus, Eng

Свадьба в Малиновке
Год выпуска: 1967
Страна: СССР
Производство: Киностудия «Ленфильм»
Жанр: Мюзикл, комедия, военный
Продолжительность: 01:32:20
Перевод: не требуется
Оригинальная аудиодорожка: русский
Субтитры: Русские, английские
Режиссёр: Андрей Тутышкин
В ролях: Владимир Самойлов, Людмила Алфимова, Валентина Николаенко, Евгений Лебедев, Зоя Фёдорова, Гелий Сысоев, Михаил Пуговкин, Николай Сличенко, Андрей Абрикосов, Григорий Абрикосов и др.
Описание: Идёт гражданская воина. В украинской деревне то и дело меняется власть. Чтобы разделаться с бандой головорезов, красный командир уговаривает девушку Яринку разыграть её свадьбу с атаманом...


Сэмпл
Качество: BDRip 1080p
Формат: MKV
Видео: MPEG-4 AVC: ~19300 kbps / 1920x818 / 23.976 fps / 2.35:1
Аудио: Russian: DTS / 5.1 / 48 kHz / 1509 kbps / 24-bit | Оригинальный
Аудио: Russian: AC-3 / 1.0 / 48 kHz / 224 kbps | Оригинальный

MediaInfoXP

General
Unique ID : 197676440362868834392736212673672898357 (0x94B718FAF7E3E2FEBC1A536A37C9E735)
Complete name : D:\111\Svadba.v.Malinovke.1967.1080p.BluRay.2xRus.x264.mkv
Format : Matroska
Format version : Version 4 / Version 2
File size : 13.5 GiB
Duration : 1h 32mn
Overall bit rate : 21.0 Mbps
Movie name : Svadba v Malinovke (1967) - Release for HDCLUB
Encoded date : UTC 2016-10-30 14:10:11
Writing application : mkvmerge v9.5.0 ('Quiet Fire') 64bit
Writing library : libebml v1.3.4 + libmatroska v1.4.5
Cover : Yes
Attachments : cover.jpg / logfile.log
Video
ID : 1
Format : AVC
Format/Info : Advanced Video Codec
Format profile : High@L4.1
Format settings, CABAC : Yes
Format settings, ReFrames : 5 frames
Codec ID : V_MPEG4/ISO/AVC
Duration : 1h 32mn
Bit rate : 19.3 Mbps
Width : 1 920 pixels
Height : 818 pixels
Display aspect ratio : 2.35:1
Frame rate mode : Constant
Frame rate : 23.976 (24000/1001) fps
Color space : YUV
Chroma subsampling : 4:2:0
Bit depth : 8 bits
Scan type : Progressive
Bits/(Pixel*Frame) : 0.512
Stream size : 12.4 GiB (92%)
Title : Svadba v Malinovke (1967) - Release for HDCLUB
Writing library : x264 core 148 r2721 72d53ab
Encoding settings : cabac=1 / ref=5 / deblock=1:-3:-3 / analyse=0x3:0x133 / me=tesa / subme=11 / psy=1 / psy_rd=1.00:0.00 / mixed_ref=1 / me_range=32 / chroma_me=1 / trellis=2 / 8x8dct=1 / cqm=0 / deadzone=21,11 / fast_pskip=0 / chroma_qp_offset=-2 / threads=12 / lookahead_threads=3 / sliced_threads=0 / nr=0 / decimate=0 / interlaced=0 / bluray_compat=0 / constrained_intra=0 / bframes=10 / b_pyramid=2 / b_adapt=2 / b_bias=0 / direct=3 / weightb=1 / open_gop=0 / weightp=2 / keyint=240 / keyint_min=23 / scenecut=40 / intra_refresh=0 / rc_lookahead=50 / rc=crf / mbtree=0 / crf=15.2 / qcomp=0.60 / qpmin=0 / qpmax=69 / qpstep=4 / vbv_maxrate=62500 / vbv_bufsize=78125 / crf_max=0.0 / nal_hrd=none / filler=0 / ip_ratio=1.40 / pb_ratio=1.30 / aq=1:0.70
Language : Russian
Default : Yes
Forced : No
Color range : Limited
Color primaries : BT.709
Transfer characteristics : BT.709
Matrix coefficients : BT.709
Audio #1
ID : 2
Format : DTS
Format/Info : Digital Theater Systems
Mode : 16
Format settings, Endianness : Big
Codec ID : A_DTS
Duration : 1h 32mn
Bit rate mode : Constant
Bit rate : 1 509 Kbps
Channel(s) : 6 channels
Channel positions : Front: L C R, Side: L R, LFE
Sampling rate : 48.0 KHz
Frame rate : 93.750 fps (512 spf)
Bit depth : 24 bits
Compression mode : Lossy
Stream size : 997 MiB (7%)
Title : DTS 5.1 @ 1509 kbps
Language : Russian
Default : Yes
Forced : No
Audio #2
ID : 3
Format : AC-3
Format/Info : Audio Coding 3
Mode extension : CM (complete main)
Format settings, Endianness : Big
Codec ID : A_AC3
Duration : 1h 32mn
Bit rate mode : Constant
Bit rate : 224 Kbps
Channel(s) : 1 channel
Channel positions : Front: C
Sampling rate : 48.0 KHz
Frame rate : 31.250 fps (1536 spf)
Compression mode : Lossy
Stream size : 148 MiB (1%)
Title : AC3 1.0 @ 224 kbps
Language : Russian
Default : No
Forced : No
Text #1
ID : 4
Format : UTF-8
Codec ID : S_TEXT/UTF8
Codec ID/Info : UTF-8 Plain Text
Duration : 1h 29mn
Bit rate : 80 bps
Count of elements : 809
Stream size : 52.7 KiB (0%)
Title : Russian
Language : Russian
Default : No
Forced : No
Text #2
ID : 5
Format : UTF-8
Codec ID : S_TEXT/UTF8
Codec ID/Info : UTF-8 Plain Text
Duration : 1h 29mn
Bit rate : 48 bps
Count of elements : 803
Stream size : 31.7 KiB (0%)
Title : English
Language : English
Default : No
Forced : No
Menu
00:00:00.000 : :Chapter 01
00:07:54.807 : :Chapter 02
00:13:37.942 : :Chapter 03
00:21:39.298 : :Chapter 04
00:32:16.935 : :Chapter 05
00:36:33.566 : :Chapter 06
00:45:03.659 : :Chapter 07
00:49:36.682 : :Chapter 08
00:53:58.443 : :Chapter 09
01:00:59.197 : :Chapter 10
01:05:12.658 : :Chapter 11
01:11:36.417 : :Chapter 12
01:15:28.524 : :Chapter 13
01:22:51.216 : :Chapter 14
01:29:34.994 : :Chapter 15

Скриншот с названием фильма

Скриншоты

Скачать

Скачать бесплатно и на максимальной скорости!

Как скачивать? · Что такое торрент? · Рейтинг и ограничения




Вы не можете начинать темы
Вы не можете отвечать на сообщения
Вы не можете редактировать свои сообщения
Вы не можете удалять свои сообщения
Вы не можете голосовать в опросах
Вы не можете прикреплять файлы к сообщениям
Вы не можете скачивать файлы