Одиночное плавание (Михаил Туманишвили) [1985, СССР, боевик, военный, драма, HDTV 1080i]


by Virtuoz ®
26-Мар-2018 08:24

[Цитировать]

Одиночное плавание (Михаил Туманишвили) [1985, СССР, боевик, военный, драма, HDTV 1080i]

Одиночное плавание
Страна: СССР
Студия: Мосфильм
Жанр: Боевик, военный, драма
Год выпуска: 1985
Продолжительность: 1:28:44
Перевод: Не требуется
Субтитры: нет
Оригинальная аудиодорожка: русский
Режиссер: Михаил Туманишвили
В ролях: Михаил Ножкин, Александр Фатюшин, Сергей Насибов, Нартай Бегалин, Виталий Зикора, Арнис Лицитис, Олег Голубицкий, Валериан Виноградов, Сергей Волкош, Николай Лавров, Вероника Изотова, Янис Мелдерис, Юрий Колганов, Борис Огородников, Кирилл Вац, Николай Курнаков, Николай Астапов, Николай Бендера, А. Гамбуров, Г. Гаузе, Ю. Горемыкин, Александр Жарков, Александр Иншаков, Василий Кравцов, Ментай (Мендитай) Утепбергенов, Михаил Бычков, Дорон Линник, М. Саккарес, Ю. Санти, Владимир Симонов, А. Устьянцев, Виталий Бобров, Валерий Фролов; голос за кадром: Артём Карапетян.
Описание: В акватории Тихого океана проходят очередные манёвры советской и американской эскадр. На засекреченной американской базе крылатых ракет большой дальности одна из пусковых установок подготовлена для удара по эскадре противника… Советский военный фрегат, после многомесячного автономного плавания направляющийся на родную базу, после полученного сигнала бедствия меняет курс. Но вместо спасения людей им придется вмешаться в смертельно опасную игру, затеянную натовцами, и вступить в настоящий бой. Ценою огромных усилий экипажа катастрофа, спровоцированная ЦРУ, предотвращена.
Сэмпл: http://multi-up.com/1125085
Тип релиза: HDTV 1080i
Контейнер: TS
Видео: MPEG-4 AVC Video, 1920x1080, 16:9, 6900 Kbps, 25 fps
Аудио 1: Русский / MPEG2 / 48 KHz / 2.0 ch / 192 Kbps
Аудио 2: Русский / AC3 / 48 KHz / 5.1 ch / 384 Kbps

MediaInfo

General
ID : 21 (0x15)
Complete name : F:\Одиночное плавание.1985.HDTV.1080i.ts
Format : MPEG-TS
File size : 4.88 GiB
Duration : 1 h 28 min
Overall bit rate mode : Variable
Overall bit rate : 7 871 kb/s
Video
ID : 101 (0x65)
Menu ID : 1 (0x1)
Format : AVC
Format/Info : Advanced Video Codec
Format profile : High@L4
Format settings, CABAC : Yes
Format settings, ReFrames : 4 frames
Format settings, GOP : M=4, N=32
Codec ID : 27
Duration : 1 h 28 min
Bit rate : 6 900 kb/s
Width : 1 920 pixels
Height : 1 080 pixels
Display aspect ratio : 16:9
Frame rate : 25.000 FPS
Standard : Component
Color space : YUV
Chroma subsampling : 4:2:0
Bit depth : 8 bits
Scan type : Interlaced
Scan type, store method : Separated fields
Scan order : Top Field First
Bits/(Pixel*Frame) : 0.133
Stream size : 4.28 GiB (88%)
Color range : Limited
Color primaries : BT.709
Transfer characteristics : BT.709
Matrix coefficients : BT.709
Audio #1
ID : 256 (0x100)
Menu ID : 1 (0x1)
Format : MPEG Audio
Format version : Version 1
Format profile : Layer 2
Codec ID : 4
Duration : 1 h 28 min
Bit rate mode : Constant
Bit rate : 192 kb/s
Channel(s) : 2 channels
Sampling rate : 48.0 kHz
Compression mode : Lossy
Delay relative to video : -24 ms
Stream size : 122 MiB (2%)
Audio #2
ID : 257 (0x101)
Menu ID : 1 (0x1)
Format : AC-3
Format/Info : Audio Coding 3
Mode extension : CM (complete main)
Format settings, Endianness : Big
Codec ID : 6
Duration : 1 h 28 min
Bit rate mode : Constant
Bit rate : 384 kb/s
Channel(s) : 6 channels
Channel positions : Front: L C R, Side: L R, LFE
Sampling rate : 48.0 kHz
Frame rate : 31.250 FPS (1536 spf)
Compression mode : Lossy
Delay relative to video : -24 ms
Stream size : 244 MiB (5%)

Скриншоты


Скриншоты сравнение с DVD9

Вот с этим - http://rutracker.org/forum/viewtopic.php?t=3213436





Скачать

Скачать бесплатно и на максимальной скорости!

Как скачивать? · Что такое торрент? · Рейтинг и ограничения




Вы не можете начинать темы
Вы не можете отвечать на сообщения
Вы не можете редактировать свои сообщения
Вы не можете удалять свои сообщения
Вы не можете голосовать в опросах
Вы не можете прикреплять файлы к сообщениям
Вы не можете скачивать файлы