Жених (Александр Незлобин) [2016, Россия, комедия, BDRip 720p] Original Rus


Размер:  5.25 GB   |    Зарегистрирован:  4 месяца 23 дня   |    Скачан:  0 раз
Сидов:  16  [  0 KB/s  ]   Подробная статистика пиров
by Virtuoz ®
26-Мар-2018 05:24

[Цитировать]

Жених (Александр Незлобин) [2016, Россия, комедия, BDRip 720p] Original Rus

Жених
Страна: Россия
Студия: Solaris Promo Production, ТНТ
Жанр: Комедия
Год выпуска: 2016
Продолжительность: 01:32:43
Перевод: Не требуется
Субтитры: нет
Оригинальная аудиодорожка: русский
Режиссер: Александр Незлобин
В ролях: Сергей Светлаков, Светлана Смирнова-Марцинкевич, Филипп Рейнхардт, Ольга Картункова, Дмитрий Никулин, Наталья Паршенкова, Сергей Бурунов, Александр Демидов, Георгий Дронов, Тимофей Зайцев
Описание: Как немец в Россию 9 мая приезжал жениться на русской красавице Алене, с которой они познакомились в Берлине. Счастливая пара едет в деревню — знакомиться с родственниками невесты. Однако туда же приезжает и бывший муж Алены — Толя, который неожиданно решил вернуть жену. Все оборачивается романтическим соперничеством, в которое кроме Толи и Гельмута, вмешиваются их друзья, родственники, а также другие жители деревни — бизнесмен Ерофеев, купивший дом по соседству, заблудившийся танкист и даже змея.

Тип релиза: BDRip 720p
Контейнер: MKV
Видео: MPEG-4 AVC, 6601 Кбит/с, 1280x718, 23,976 fps
Аудио: DTS, 1509 kb/s (6 ch), 48 kHz

MediaInfo

Общее
Уникальный идентификатор : 182675973057935100988021778416095295756 (0x896E1CD77F6F230DA013C7898E91790C)
Полное имя : E:\The.Groom.2016.720p.BluRay.Rus.HDCLUB.mkv
Формат : Matroska
Версия формата : Version 2
Размер файла : 5,25 Гбайт
Продолжительность : 1 ч. 32 м.
Общий поток : 8112 Кбит/сек
Название фильма : The Groom (2016) - Release for HDCLUB
Дата кодирования : UTC 2016-10-28 10:00:25
Программа кодирования : mkvmerge v8.3.0 ('Over the Horizon') 64bit
Библиотека кодирования : libebml v1.3.1 + libmatroska v1.4.2
Видео
Идентификатор : 1
Формат : AVC
Формат/Информация : Advanced Video Codec
Профиль формата : High@L4.1
Параметр CABAC формата : Да
Параметр ReFrames формата : 9 кадров
Идентификатор кодека : V_MPEG4/ISO/AVC
Продолжительность : 1 ч. 32 м.
Битрейт : 6601 Кбит/сек
Ширина : 1280 пикселей
Высота : 718 пикселей
Соотношение сторон : 16:9
Режим частоты кадров : Постоянный
Частота кадров : 23,976 (24000/1001) кадра/сек
Цветовое пространство : YUV
Субдискретизация насыщенности : 4:2:0
Битовая глубина : 8 бит
Тип развёртки : Прогрессивная
Бит/(Пиксели*Кадры) : 0.300
Размер потока : 4,28 Гбайт (81%)
Заголовок : The Groom (2016) - Release for HDCLUB
Библиотека кодирования : x264 core 148 r2721 72d53ab
Настройки программы : cabac=1 / ref=9 / deblock=1:-3:-3 / analyse=0x3:0x133 / me=umh / subme=11 / psy=1 / psy_rd=1.00:0.00 / mixed_ref=1 / me_range=48 / chroma_me=1 / trellis=2 / 8x8dct=1 / cqm=0 / deadzone=21,11 / fast_pskip=0 / chroma_qp_offset=-2 / threads=22 / lookahead_threads=3 / sliced_threads=0 / nr=0 / decimate=1 / interlaced=0 / bluray_compat=0 / constrained_intra=0 / bframes=7 / b_pyramid=2 / b_adapt=2 / b_bias=0 / direct=1 / weightb=1 / open_gop=0 / weightp=2 / keyint=240 / keyint_min=23 / scenecut=40 / intra_refresh=0 / rc_lookahead=60 / rc=crf / mbtree=0 / crf=16.8 / qcomp=0.60 / qpmin=0 / qpmax=69 / qpstep=4 / vbv_maxrate=50000 / vbv_bufsize=62500 / crf_max=0.0 / nal_hrd=none / filler=0 / ip_ratio=1.35 / pb_ratio=1.25 / aq=3:0.80
Язык : Russian
Default : Да
Forced : Нет
Аудио
Идентификатор : 2
Формат : DTS
Формат/Информация : Digital Theater Systems
Режим : 16
Параметр Endianness формата : Big
Идентификатор кодека : A_DTS
Продолжительность : 1 ч. 32 м.
Вид битрейта : Постоянный
Битрейт : 1509 Кбит/сек
Каналы : 6 каналов
Расположение каналов : Front: L C R, Side: L R, LFE
Частота : 48,0 КГц
Частота кадров : 93,750 кадра/сек (512 spf)
Битовая глубина : 24 бит
Метод сжатия : С потерями
Размер потока : 1001 Мбайт (19%)
Заголовок : DTS 5.1 @ 1536 kbps
Язык : Russian
Default : Да
Forced : Нет
Меню
00:00:00.000 : ru:
00:00:43.710 : ru:
00:11:25.268 : ru:
00:21:49.892 : ru:
00:35:50.065 : ru:
00:53:12.189 : ru:
01:04:18.938 : ru:
01:13:45.546 : ru:
01:21:17.414 : ru:

Скриншоты




Вы не можете начинать темы
Вы не можете отвечать на сообщения
Вы не можете редактировать свои сообщения
Вы не можете удалять свои сообщения
Вы не можете голосовать в опросах
Вы не можете прикреплять файлы к сообщениям
Вы можете скачивать файлы