Её звали Муму (Владимир Мирзоев) [2016, Россия, драма, WEB-DL 1080p] [версия без цензуры]


by Virtuoz ®
26-Мар-2018 08:24

[Цитировать]

Её звали Муму (Владимир Мирзоев) [2016, Россия, драма, WEB-DL 1080p] [версия без цензуры]

Её звали Муму- -Страна: Россия
Жанр: драма
Год выпуска: 2016
Производство: «ООО «Фабула Филмс»»
Продолжительность: 01:32:26
Оригинальная аудиодорожка: русский
Субтитры: нет-Режиссер: Владимир Мирзоев-В ролях:
Ирина Вилкова, Елена Коренева, Ефим Шифрин, Пётр Фёдоров, Ольга Лапшина, Ольга Лысак, Валерия Приходченко, Ирина Бутанаева, Евгений Буслаков, Игорь Воробьёв, Юрий Сысоев, Кирилл Леднев, Сергей Басок, Александр Яцентюк-Описание:
Фильм снят на основе реальных событий: он рассказывает о череде сексуальных провокаций, главной героиней которых была Екатерина Герасимова,
известная по прозвищу Муму, а жертвами стали многие оппозиционные лидеры и журналисты.-Возраст: 18+-Качество: WEB-DL 1080p
Формат: MKV
Видео кодек: AVC
Аудио кодек: AC3

Видео: AVC, 1920 х 1080 (16:9), 25,000 кадр/сек, 8 042 Кбит/сек, 0.155 bit/pixel
Аудио: AC3, 48000 Hz, 384 Kbps, 2 канала-

MediaInfo

General
Unique ID : 189403591534813308382676584346718571472 (0x8E7DCE0AB96651CF812DB5108B780BD0)
Complete name : D:\Её звали Муму (версия без цензуры) WEB-DL (1080p)\Её звали Муму (версия без цензуры) WEB-DL (1080p).mkv
Format : Matroska
Format version : Version 2
File size : 5.42 GiB
Duration : 1h 32mn
Overall bit rate mode : Constant
Overall bit rate : 8 401 Kbps
Encoded date : UTC 2016-10-24 11:50:59
Writing application : mkvmerge v7.8.0 ('River Man') 32bit built on Apr 3 2015 12:11:22
Writing library : libebml v1.3.1 + libmatroska v1.4.2
Video
ID : 1
Format : AVC
Format/Info : Advanced Video Codec
Format profile : Main@L5.1
Format settings, CABAC : Yes
Format settings, ReFrames : 3 frames
Format settings, GOP : M=4, N=33
Codec ID : V_MPEG4/ISO/AVC
Duration : 1h 32mn
Bit rate mode : Constant
Bit rate : 8 042 Kbps
Nominal bit rate : 10 000 Kbps
Width : 1 920 pixels
Height : 1 080 pixels
Display aspect ratio : 16:9
Frame rate mode : Constant
Frame rate : 25.000 fps
Standard : NTSC
Color space : YUV
Chroma subsampling : 4:2:0
Bit depth : 8 bits
Scan type : Progressive
Bits/(Pixel*Frame) : 0.155
Stream size : 5.19 GiB (96%)
Language : Russian
Default : Yes
Forced : No
Color range : Limited
Statistics Tags Issue : mkvmerge v8.3.0 ('Over the Horizon') 64bit 2016-10-24 10:41:28 / mkvmerge v7.8.0 ('River Man') 32bit built on Apr 3 2015 12:11:22 2016-10-24 11:50:59
FromStats_BitRate : 8207326
FromStats_Duration : 01:32:26.280000000
FromStats_FrameCount : 138657
FromStats_StreamSize : 5690016009
Audio
ID : 2
Format : AC-3
Format/Info : Audio Coding 3
Mode extension : CM (complete main)
Format settings, Endianness : Big
Codec ID : A_AC3
Duration : 1h 32mn
Bit rate mode : Constant
Bit rate : 192 Kbps
Channel(s) : 2 channels
Channel positions : Front: L R
Sampling rate : 48.0 KHz
Frame rate : 31.250 fps (1536 spf)
Compression mode : Lossy
Stream size : 127 MiB (2%)
Language : Russian
Default : Yes
Forced : No

Скриншоты

-Раздаю до первых 5-ти скачавших, на раздачи не возвращаюсь...-
Скачать

Скачать бесплатно и на максимальной скорости!

Как скачивать? · Что такое торрент? · Рейтинг и ограничения




Вы не можете начинать темы
Вы не можете отвечать на сообщения
Вы не можете редактировать свои сообщения
Вы не можете удалять свои сообщения
Вы не можете голосовать в опросах
Вы не можете прикреплять файлы к сообщениям
Вы не можете скачивать файлы