Грязная Парочка: Заговор рейса 005 / Dirty Pair Flight 005 Conspiracy (Такидзава Тосифуми) [OVA] [RUS(int), JAP, SUB] [1990, фантастика, боевик, приключения, BDrip] [720p]


by lev99 ®
05-Дек-2017 10:48

[Цитировать]

Грязная Парочка: Заговор рейса 005 / Dirty Pair Flight 005 Conspiracy (Такидзава Тосифуми) [OVA] [RUS(int), JAP, SUB] [1990, фантастика, боевик, приключения, BDrip] [720p]

Грязная Парочка: Заговор рейса 005 / Dirty Pair: Flight 005 Conspiracy / Dirty Pair: Bouryaku no 005-bin
Страна: Япония
Год выпуска: 1990 г.
Жанр: приключения, фантастика
Тип: OVA (1 эп.), 60 мин.
Режиссер: Такидзава Тосифуми
Студия: Sunrise
Описание: Космический рейс 005 потерпел аварию. 300 погибших пассажиров, и никаких требований страховки, не странно ли? А ещё пропавший учёный, который всего-то исследовал новый изоляционный материал... Почему главный компьютер объединил эти дела в одно? Всё это предстоит выяснить небезызвестной грязной парочке. Они отправляются на задание под напутственный выкрик начальства -"И без излишних разрушений!" Без излишних разрушений? - трудноватая задача для этих девушек. Но, ведь главное - результат, не так ли?
- world-art -
Возраст: 14+
Рейтинг MPAA: PG-13
Формат видео: MKV
Качество видео: BDrip
Видео: x264@L4.1, 960x720 (4:3), 23.976 fps, 1949 kbps, 0.118 bit/pixel, 8 bit
Аудио: AAC, 192 kbp, 48 KHz, 2ch Язык Русский (в составе контейнера) ; Озвучка: Одноголосная (жен.) Persona99 / GSGroup
Аудио 2: AAC, 192 kbp, 48 KHz, 2ch Язык Японский ; Озвучка 3: Оригинальная
Субтитры: ASS, встроенные

MediaInfo

Unique ID : 181142679092995089614992513271285373268 (0x8846CF9CDAF832A1AD694DE58C4B5954)
Complete name : [lev99] Dirty Pair - Flight 005 Conspiracy [BDrip 960x720 x264 AAC].mkv
Format : Matroska
Format version : Version 4 / Version 2
File size : 989 Мбайт
Duration : 1 ч. 0 м.
Overall bit rate : 2286 Кбит/сек
Movie name : Dirty Pair: Flight 005 Conspiracy
Encoded date : UTC 2017-11-01 00:47:34
Writing application : mkvmerge v17.0.0 ('Be Ur Friend') 64-bit
Writing library : libebml v1.3.5 + libmatroska v1.4.8
Cover : Yes
Attachments : cover.jpg
Видео
ID : 1
Format : AVC
Format/Info : Advanced Video Codec
Format profile : High@L4.1
Format settings : CABAC / 4 Ref Frames
Format settings, CABAC : Да
Format settings, RefFrames : 4 кадра
Codec ID : V_MPEG4/ISO/AVC
Duration : 59 м. 0 с.
Bit rate : 1949 Кбит/сек
Width : 960 пикселей
Height : 720 пикселей
Display aspect ratio : 4:3
Frame rate mode : Постоянный
Frame rate : 23,976 (24000/1001) кадра/сек
Color space : YUV
Chroma subsampling : 4:2:0
Bit depth : 8 бит
Scan type : Прогрессивная
Bits/(Pixel*Frame) : 0.118
Stream size : 823 Мбайт (83%)
Writing library : x264 core 148 r2744 b97ae06
Encoding settings : cabac=1 / ref=3 / deblock=1:-1:-1 / analyse=0x3:0x133 / me=umh / subme=10 / psy=1 / psy_rd=0.40:0.00 / mixed_ref=1 / me_range=24 / chroma_me=1 / trellis=2 / 8x8dct=1 / cqm=0 / deadzone=21,11 / fast_pskip=1 / chroma_qp_offset=-2 / threads=2 / lookahead_threads=1 / sliced_threads=0 / nr=0 / decimate=1 / interlaced=0 / bluray_compat=0 / constrained_intra=0 / bframes=3 / b_pyramid=2 / b_adapt=2 / b_bias=0 / direct=1 / weightb=1 / open_gop=0 / weightp=2 / keyint=240 / keyint_min=23 / scenecut=40 / intra_refresh=0 / rc_lookahead=60 / rc=crf / mbtree=1 / crf=18.0 / qcomp=0.60 / qpmin=0 / qpmax=69 / qpstep=4 / vbv_maxrate=62500 / vbv_bufsize=50000 / crf_max=0.0 / nal_hrd=none / filler=0 / ip_ratio=1.40 / aq=1:0.60
Default : Да
Forced : Нет
Color range : Limited
Color primaries : BT.709
Transfer characteristics : BT.709
Matrix coefficients : BT.709
Аудио #1
ID : 2
Format : AAC
Format/Info : Advanced Audio Codec
Format profile : LC
Codec ID : A_AAC-2
Duration : 1 ч. 0 м.
Bit rate : 192 Кбит/сек
Channel(s) : 2 канала
Channel positions : Front: L R
Sampling rate : 48,0 КГц
Frame rate : 46,875 кадров/сек (1024 SPF)
Compression mode : С потерями
Delay relative to video : 21 мс.
Stream size : 83,0 Мбайт (8%)
Title : Persona99
Language : Russian
Default : Да
Forced : Нет
Аудио #2
ID : 3
Format : AAC
Format/Info : Advanced Audio Codec
Format profile : LC
Codec ID : A_AAC-2
Duration : 59 м. 23 с.
Bit rate : 192 Кбит/сек
Channel(s) : 2 канала
Channel positions : Front: L R
Sampling rate : 48,0 КГц
Frame rate : 46,875 кадров/сек (1024 SPF)
Compression mode : С потерями
Delay relative to video : 21 мс.
Stream size : 81,6 Мбайт (8%)
Language : Japanese
Default : Нет
Forced : Нет
Текст
ID : 4
Format : UTF-8
Codec ID : S_TEXT/UTF8
Codec ID/Info : UTF-8 Plain Text
Duration : 58 м. 12 с.
Bit rate : 88 бит/сек
Count of elements : 654
Stream size : 37,8 Кбайт (0%)
Language : Russian
Default : Нет
Forced : Нет

Серия состоит из

#1 Грязная Парочка [ТВ] - ТВ (24 эп.), адаптация ранобэ, 1985
#2 Грязная Парочка: От Милых Ангелов с любовью - OVA (2 эп.), продолжение, 1987
#3 Грязная Парочка: Ноландское дело - OVA (1 эп.), продолжение, 1985
#4 Грязная Парочка OVA - OVA (10 эп.), продолжение, 1987
#5 Грязная Парочка: Проект Эдем - п/ф, продолжение, 1987
#6 Грязная Парочка: Заговор рейса 005 - OVA (1 эп.), продолжение, 1990
#7 Ослепительная Грязная Парочка - OVA (16 эп.), альтернативная вселенная, 1994

Скриншоты

Скачать

Скачать бесплатно и на максимальной скорости!

Как скачивать? · Что такое торрент? · Рейтинг и ограничения




Вы не можете начинать темы
Вы не можете отвечать на сообщения
Вы не можете редактировать свои сообщения
Вы не можете удалять свои сообщения
Вы не можете голосовать в опросах
Вы не можете прикреплять файлы к сообщениям
Вы не можете скачивать файлы