Юмэрия / Yumeria (Мотонага Кэйтаро) [TV] [12 из 12] [Без хардсаба] [RUS(int), JAP] [2004, комедия, мистика, этти, DVDRip] [720p]


Размер:  4.06 GB   |    Зарегистрирован:  9 месяцев 5 дней   |    Скачан:  1 раз

Полного источника не было: 9 часов

by lev99 ®
13-Дек-2017 08:06

[Цитировать]

Юмэрия / Yumeria (Мотонага Кэйтаро) [TV] [12 из 12] [Без хардсаба] [RUS(int), JAP] [2004, комедия, мистика, этти, DVDRip] [720p]

Юмэрия / Yumeria
Страна: Япония
Год выпуска: 2004 г.
Жанр: комедия, мистика, этти
Тип: TV
Эпизоды: 12 из 12
Продолжительность: 25 мин.
Режиссер: Мотонага Кэйтаро
Студия: Studio DEEN
Описание: Однажды, 16-летнему Томоказу Микури приснился странный сон. Он увидел девушку, борющуюся с врагами в несуществующем мире. Оказывается, что в этом мире грез Томоказу владеет необычайной силой. После того, как он наделяет девушку этой силой, она побеждает врагов. Томоказу поражен миром грез, своей силой и загадочной девушкой, ведущей войну. Но еще больше он поражен, когда, проснувшись, обнаруживает девушку из только что увиденного сна спящей рядом с ним. С этого момента и начинаются приключения главного героя в мире снов, в которые втягиваются все новые и новые личности, при чем все странным образом оказались девушками, да еще и ревнующие Томоказу друг к другу. В общем, милая гаремная комедия, разбавленная сценами сражения, в конце которой, конечно же, вся эта веселая компания спасает мир.
- world-art - | - kinopoisk -
Возраст: 14+
Рейтинг MPAA: PG-13
Доп. информация: Это апскейл с чисткой артефактов, что бы лучше выглядело на современных 16:9 экранах.
Качество: DVDRip
Тип релиза: Без хардсаба
Формат видео: MKV
Видео: x264@L3.1, 1280x720 (16:9), 23.976 fps, 1662 kbps, 0.075 bit/pixel, 8 bit
Аудио: Vorbis Audio, stereo, 48.0 KHz, 192 Kbps; Язык: Русский (в составе контейнера); Озвучка: Одноголосная (жен.) Persona99 / GSGroup
Аудио 2: Vorbis Audio, stereo, 48.0 KHz, 192 Kbps; Язык: Японский; Озвучка 2: Оригинальная
Субтитры: ASS - надписи и полные (встроенные) Язык субтитров русский ; Перевод: Xande; Оформление: kosmos_kn.

MediaInfo

Общее
Уникальный идентификатор : 187185553620073668683959166059105682529 (0x8CD2A0545E5224EC9795734673E70461)
Полное имя : \Yumeria TV [lev99]\[ARRU] Yumeria [01][DVDRip 720][Persona99].mkv
Формат : Matroska
Версия формата : Version 4 / Version 2
Размер файла : 347 Мбайт
Продолжительность : 24 м. 10 с.
Режим общего битрейта : Переменный
Общий поток : 2004 Кбит/сек
Дата кодирования : UTC 2016-12-18 16:09:29
Программа кодирования : mkvmerge v9.6.0 ('Slave To Your Mind') 64bit
Библиотека кодирования : libebml v1.3.4 + libmatroska v1.4.5
Обложка : Yes
Attachments : cover.jpg / Betina Bold.Ttf / CURLZ__.TTF / Ariston.ttf
Видео
Идентификатор : 1
Формат : AVC
Формат/Информация : Advanced Video Codec
Профиль формата : High@L3.1
Настройки формата : CABAC / 4 Ref Frames
Параметр CABAC формата : Да
Параметр RefFrames формата : 4 кадра
Идентификатор кодека : V_MPEG4/ISO/AVC
Продолжительность : 24 м. 10 с.
Битрейт : 1662 Кбит/сек
Ширина : 1280 пикселей
Высота : 720 пикселей
Соотношение сторон : 16:9
Режим частоты кадров : Постоянный
Частота кадров : 23,976 (24000/1001) кадра/сек
Цветовое пространство : YUV
Субдискретизация насыщенности : 4:2:0
Битовая глубина : 8 бит
Тип развёртки : Прогрессивная
Бит/(Пиксели*Кадры) : 0.075
Размер потока : 288 Мбайт (83%)
Заголовок : Yumeria
Библиотека кодирования : x264 core 148 r2638 7599210
Настройки программы : cabac=1 / ref=3 / deblock=1:0:0 / analyse=0x3:0x113 / me=hex / subme=7 / psy=1 / psy_rd=1.00:0.00 / mixed_ref=1 / me_range=16 / chroma_me=1 / trellis=1 / 8x8dct=1 / cqm=0 / deadzone=21,11 / fast_pskip=1 / chroma_qp_offset=-2 / threads=18 / lookahead_threads=3 / sliced_threads=0 / nr=0 / decimate=1 / interlaced=0 / bluray_compat=0 / constrained_intra=0 / bframes=3 / b_pyramid=2 / b_adapt=1 / b_bias=0 / direct=1 / weightb=1 / open_gop=0 / weightp=2 / keyint=240 / keyint_min=23 / scenecut=40 / intra_refresh=0 / rc_lookahead=40 / rc=2pass / mbtree=1 / bitrate=1662 / ratetol=1.0 / qcomp=0.60 / qpmin=0 / qpmax=69 / qpstep=4 / cplxblur=20.0 / qblur=0.5 / ip_ratio=1.40 / aq=1:1.00
Язык : Japanese
Default : Да
Forced : Нет
Аудио #1
Идентификатор : 2
Формат : Vorbis
Параметр Floor формата : 1
Идентификатор кодека : A_VORBIS
Продолжительность : 24 м. 10 с.
Вид битрейта : Переменный
Битрейт : 192 Кбит/сек
Каналы : 2 канала
Частота : 48,0 КГц
Частота кадров : 75,572 кадров/сек (635 SPF)
Метод сжатия : С потерями
Размер потока : 29,1 Мбайт (8%)
Заголовок : Russian
Библиотека кодирования : aoTuV 20110424 (UTC 2011-04-24)
Язык : Russian
Default : Да
Forced : Нет
Аудио #2
Идентификатор : 3
Формат : Vorbis
Параметр Floor формата : 1
Идентификатор кодека : A_VORBIS
Продолжительность : 24 м. 10 с.
Вид битрейта : Переменный
Битрейт : 192 Кбит/сек
Каналы : 2 канала
Частота : 48,0 КГц
Частота кадров : 72,120 кадра/сек (666 SPF)
Метод сжатия : С потерями
Размер потока : 28,6 Мбайт (8%)
Заголовок : Japanese
Библиотека кодирования : aoTuV 20110424 (UTC 2011-04-24)
Язык : Japanese
Default : Нет
Forced : Нет
Текст #1
Идентификатор : 4
Формат : ASS
Идентификатор кодека : S_TEXT/ASS
Идентификатор кодека/Информация : Advanced Sub Station Alpha
Продолжительность : 21 м. 16 с.
Битрейт : 15 бит/сек
ElementCount : 28
Метод сжатия : Без потерь
Размер потока : 2,47 Кбайт (0%)
Заголовок : Надписи
Язык : Russian
Default : Да
Forced : Нет
Текст #2
Идентификатор : 5
Формат : ASS
Идентификатор кодека : S_TEXT/ASS
Идентификатор кодека/Информация : Advanced Sub Station Alpha
Продолжительность : 24 м. 4 с.
Битрейт : 188 бит/сек
ElementCount : 400
Метод сжатия : Без потерь
Размер потока : 33,2 Кбайт (0%)
Заголовок : Субтитры
Язык : Russian
Default : Нет
Forced : Нет

Список эпизодов

01. 16th Birthday
02. Tomokazu, 0 Mark
03. Bulma V
04. School Swimsuit Big Strategy
05. It's a Watch at the Dream Beach
06. Master of Yukata
07. Girl Who Endlessly Reincarnates in Reverse
08. Our Refusal
09. Bunny Man
10. Katsu-don Flavor
11. Destiny Change
12. Tomokazu 100 Points

Скриншоты




Вы не можете начинать темы
Вы не можете отвечать на сообщения
Вы не можете редактировать свои сообщения
Вы не можете удалять свои сообщения
Вы не можете голосовать в опросах
Вы не можете прикреплять файлы к сообщениям
Вы можете скачивать файлы