Великий уравнитель 2 / The Equalizer 2 (Антуан Фукуа / Antoine Fuqua) [2018, США, боевик, триллер, криминал, Blu-ray disc 1080p] [EUR] Dub + Sub (Rus, Eng, Ukr) + Original Eng


by Boris G ®
16-Dec-2018 13:15

[Quote]

Великий уравнитель 2 / The Equalizer 2 (Антуан Фукуа / Antoine Fuqua) [2018, США, боевик, триллер, криминал, Blu-ray disc 1080p] [EUR] Dub + Sub (Rus, Eng, Ukr) + Original Eng

Великий уравнитель 2 / The Equalizer 2
Страна: США
Жанр: боевик, триллер, криминал
Год выпуска: 2018
Продолжительность: 02:00:57
Перевод: Профессиональный (дублированный)
Субтитры: английские, датские, голландские, русские, эстонские, финские, французские, немецкие, шведские, турецкие, арабские, украинские
Оригинальная аудиодорожка: английский
Режиссер: Антуан Фукуа / Antoine Fuqua
В ролях: Дензел Вашингтон, Педро Паскаль, Билл Пуллман, Мелисса Лео, Джонатан Скарф, Сакина Джэффри, Кэролайн Дэй, Орсон Бин, Хайди Гарроу, Эштон Сандерс
Описание: Бывший спецагент Роберт Маккол продолжает помогать хорошим, по его мнению, людям и наказывать плохих. ЦРУ считает его погибшим, и только старый друг и бывшая коллега Сьюзан знает его тайну и периодически заходит в гости. Когда на очередном задании в Брюсселе Сьюзан убивают, пытаясь замаскировать это под ограбление, Маккол решат разобраться и отомстить всем причастным
Тип релиза: Blu-ray disc
Контейнер: BDMV
Видео: MPEG-4 AVC Video 22748 kbps 1080p / 23.976 fps / 16:9 / High Profile 4.1
Аудио 1: Английский / DTS-HD Master Audio / 7.1 / 48 kHz / 2733 kbps / 16-bit (DTS Core: 5.1 / 48 kHz / 1509 kbps / 16-bit)
Аудио 2: Французский / DTS-HD Master Audio / 5.1 / 48 kHz / 2228 kbps / 16-bit (DTS Core: 5.1 / 48 kHz / 1509 kbps / 16-bit)
Аудио 3: Французский / Dolby Digital Audio / 5.1 / 48 kHz / 448 kbps
Аудио 4: Немецкий / DTS-HD Master Audio / 5.1 / 48 kHz / 2234 kbps / 16-bit (DTS Core: 5.1 / 48 kHz / 1509 kbps / 16-bit)
Аудио 5: Русский / Dolby Digital Audio / 5.1 / 48 kHz / 640 kbps

На диске

• Удалённые и расширенные сцены
• За секунды до смерти: анализ сцены
• Дензел в роли Маколла - второй раунд
• Сквозь линзу Антуана: актёрский состав
• Интересные факты о "Великом уравнителе"
• НБА-ТВ спорт

BDInfo

DISC INFO:
Disc Title: The Equalizer 2 EUR 2018
Disc Size: 43,832,489,672 bytes
Protection: AACS
BD-Java: Yes
BDInfo: 0.5.8.7 (compatible layout created by DVDFab 10.2.1.7)
PLAYLIST REPORT:
Name: 00423.MPLS
Length: 2:00:57.249 (h:m:s.ms)
Size: 30,458,904,576 bytes
Total Bitrate: 33.58 Mbps
VIDEO:
Codec Bitrate Description
----- ------- -----------
MPEG-4 AVC Video 22748 kbps 1080p / 23.976 fps / 16:9 / High Profile 4.1 /
AUDIO:
Codec Language Bitrate Description
----- -------- ------- -----------
DTS-HD Master Audio English 2733 kbps 7.1 / 48 kHz / 2733 kbps / 16-bit (DTS Core: 5.1 / 48 kHz / 1509 kbps / 16-bit)
DTS-HD Master Audio French 2228 kbps 5.1 / 48 kHz / 2228 kbps / 16-bit (DTS Core: 5.1 / 48 kHz / 1509 kbps / 16-bit)
Dolby Digital Audio French 448 kbps 5.1 / 48 kHz / 448 kbps
DTS-HD Master Audio German 2234 kbps 5.1 / 48 kHz / 2234 kbps / 16-bit (DTS Core: 5.1 / 48 kHz / 1509 kbps / 16-bit)
Dolby Digital Audio Russian 640 kbps 5.1 / 48 kHz / 640 kbps
SUBTITLES:
Codec Language Bitrate Description
----- -------- ------- -----------
Presentation Graphics English 22.175 kbps
Presentation Graphics Arabic 11.1 kbps
Presentation Graphics Danish 20.458 kbps
Presentation Graphics Dutch 18.455 kbps
Presentation Graphics Estonian 18.283 kbps
Presentation Graphics Finnish 19.17 kbps
Presentation Graphics French 18.596 kbps
Presentation Graphics German 23.089 kbps
Presentation Graphics Latvian 19.314 kbps
Presentation Graphics Lithuanian 19.729 kbps
Presentation Graphics Norwegian 18.641 kbps
Presentation Graphics Russian 21.261 kbps
Presentation Graphics Swedish 17.524 kbps
Presentation Graphics Turkish 20.726 kbps
Presentation Graphics Ukrainian 20.562 kbps
FILES:
Name Time In Length Size Total Bitrate
---- ------- ------ ---- -------------
00414.M2TS 0:00:00.000 0:01:07.108 274,452,480 32,717 kbps
00379.M2TS 0:01:07.108 0:06:38.147 1,623,140,352 32,613 kbps
00380.M2TS 0:07:45.256 0:01:27.879 367,828,992 33,484 kbps
00381.M2TS 0:09:13.135 0:07:13.599 1,803,079,680 33,267 kbps
00382.M2TS 0:16:26.735 0:01:20.080 334,774,272 33,443 kbps
00383.M2TS 0:17:46.815 0:04:48.037 1,200,224,256 33,335 kbps
00384.M2TS 0:22:34.853 0:00:20.228 82,759,680 32,729 kbps
00385.M2TS 0:22:55.081 0:19:26.665 4,855,750,656 33,296 kbps
00386.M2TS 0:42:21.747 0:01:46.481 441,059,328 33,137 kbps
00387.M2TS 0:44:08.228 0:09:28.109 2,366,951,424 33,330 kbps
00388.M2TS 0:53:36.337 0:00:55.597 229,896,192 33,080 kbps
00389.M2TS 0:54:31.935 0:10:09.108 2,539,554,816 33,354 kbps
00390.M2TS 1:04:41.043 0:00:42.959 179,116,032 33,355 kbps
00391.M2TS 1:05:24.003 0:04:31.479 1,127,755,776 33,232 kbps
00392.M2TS 1:09:55.482 0:01:53.321 473,960,448 33,459 kbps
00393.M2TS 1:11:48.804 0:08:37.433 2,166,503,424 33,496 kbps
00394.M2TS 1:20:26.237 0:00:40.040 167,411,712 33,448 kbps
00395.M2TS 1:21:06.277 0:13:16.337 3,354,101,760 33,695 kbps
00396.M2TS 1:34:22.615 0:00:34.909 154,091,520 35,311 kbps
00397.M2TS 1:34:57.524 0:09:11.634 2,414,358,528 35,013 kbps
00398.M2TS 1:44:09.159 0:00:22.647 100,048,896 35,341 kbps
00399.M2TS 1:44:31.807 0:10:49.482 2,773,039,104 34,156 kbps
00400.M2TS 1:55:21.289 0:00:59.142 248,666,112 33,636 kbps
00401.M2TS 1:56:20.431 0:04:36.818 1,180,379,136 34,112 kbps
QUICK SUMMARY:
Disc Title: The Equalizer 2 EUR 2018
Disc Size: 43,832,489,672 bytes
Protection: AACS
BD-Java: Yes
Playlist: 00423.MPLS
Size: 30,458,904,576 bytes
Length: 2:00:57.249
Total Bitrate: 33.58 Mbps
Video: MPEG-4 AVC Video / 22748 kbps / 1080p / 23.976 fps / 16:9 / High Profile 4.1 /
Audio: English / DTS-HD Master Audio / 7.1 / 48 kHz / 2733 kbps / 16-bit (DTS Core: 5.1 / 48 kHz / 1509 kbps / 16-bit)
Audio: French / DTS-HD Master Audio / 5.1 / 48 kHz / 2228 kbps / 16-bit (DTS Core: 5.1 / 48 kHz / 1509 kbps / 16-bit)
Audio: French / Dolby Digital Audio / 5.1 / 48 kHz / 448 kbps
Audio: German / DTS-HD Master Audio / 5.1 / 48 kHz / 2234 kbps / 16-bit (DTS Core: 5.1 / 48 kHz / 1509 kbps / 16-bit)
Audio: Russian / Dolby Digital Audio / 5.1 / 48 kHz / 640 kbps
Subtitle: English / 22.175 kbps
Subtitle: Arabic / 11.1 kbps
Subtitle: Danish / 20.458 kbps
Subtitle: Dutch / 18.455 kbps
Subtitle: Estonian / 18.283 kbps
Subtitle: Finnish / 19.17 kbps
Subtitle: French / 18.596 kbps
Subtitle: German / 23.089 kbps
Subtitle: Latvian / 19.314 kbps
Subtitle: Lithuanian / 19.729 kbps
Subtitle: Norwegian / 18.641 kbps
Subtitle: Russian / 21.261 kbps
Subtitle: Swedish / 17.524 kbps
Subtitle: Turkish / 20.726 kbps
Subtitle: Ukrainian / 20.562 kbps

Скриншоты

Download

Download free and at maximum speed!

How to Download? · What is a torrent? · Ratings and Limitations




You cannot post new topics in this forum
You cannot reply to topics in this forum
You cannot edit your posts in this forum
You cannot delete your posts in this forum
You cannot vote in polls in this forum
You cannot attach files in this forum
You cannot download files in this forum