Кастлвания / Castlevania / Сезон: 2 / Серии: 1-8 из 8 (Сэм Дитс, Адам Дитс, Спенсер Уон) [2018, США, мультфильм, ужасы, фэнтези, боевик, приключения, WEBRip 1080p] MVO (TVShows) + Sub (Eng) + Original


by Boris G ®
16-Dec-2018 11:19

[Quote]

Кастлвания / Castlevania / Сезон: 2 / Серии: 1-8 из 8 (Сэм Дитс, Адам Дитс, Спенсер Уон) [2018, США, мультфильм, ужасы, фэнтези, боевик, приключения, WEBRip 1080p] MVO (TVShows) + Sub (Eng) + Original

Кастлвания / Castlevania
Страна: США
Производство: NetFlix, Powerhouse Animation Studios, Mua Film, Frederator Studios
Год выпуска: 2018
Жанр: мультфильм, ужасы, фэнтези, боевик, приключения
Продолжительность: 8х ~00:28:00
Перевод: Любительский (многоголосый закадровый) | TVShows
Режиссёры: Сэм Дитс, Адам Дитс, Спенсер Уон
Роли озвучивали: Ричард Армитедж, Грэм МакТавиш, Мэтт Фрюэр, Эмили Суоллоу, Джеймс Кэллис, Алехандра Рейносо
Описание: Смелая девушка Лиза приходит прямиком в замок графа Дракулы, чтобы тот поделился с ней всеми доступными научными знаниями. У неё благородная цель — девушка хочет стать лучшим врачом и облегчить жизнь людей, но местные не оценили рвения, и уже через год Лизу сжигают на костре за колдовство. Взбешённый Дракула решает мстить за любимую — он даёт жителям города год, а затем насылает на них полчища демонов из ада...

Качество: WEBRip 1080p
Формат: МКV
Видео: 1920x1080 (16:9), 23.976 fps, MPEG-4 AVC ~4 870 kbps avg
Аудио №1: AC3 Dolby Digital, 3/2 (L,C,R,l,r) + LFE ch, 48.0 kHz, ~384 kbps | RUS
Аудио №2: AC3 Dolby Digital, 3/2 (L,C,R,l,r) + LFE ch, 48.0 kHz, ~384 kbps | ENG
Субтитры: Английские

Подробные технические данные

General
Unique ID : 176475076075389536234481575975973353827 (0x84C3DD04303EE02EE5249C5431A8F963)
Complete name : Castlevania.S02E07.1080p.TVShows.mkv
Format : Matroska
Format version : Version 4 / Version 2
File size : 1.07 GiB
Duration : 27 min 56 s
Overall bit rate mode : Variable
Overall bit rate : 5 488 kb/s
Encoded date : UTC 2018-11-21 21:13:35
Writing application : mkvmerge v28.2.0 ('The Awakening') 32-bit
Writing library : libebml v1.3.6 + libmatroska v1.4.9
Video
ID : 1
Format : AVC
Format/Info : Advanced Video Codec
Format profile : Main@L4
Format settings, CABAC : Yes
Format settings, RefFrames : 3 frames
Codec ID : V_MPEG4/ISO/AVC
Duration : 27 min 56 s
Bit rate mode : Variable
Bit rate : 4 870 kb/s
Maximum bit rate : 7 305 kb/s
Width : 1 920 pixels
Height : 1 080 pixels
Display aspect ratio : 16:9
Frame rate mode : Constant
Frame rate : 23.976 (24000/1001) FPS
Color space : YUV
Chroma subsampling : 4:2:0
Bit depth : 8 bits
Scan type : Progressive
Bits/(Pixel*Frame) : 0.098
Stream size : 943 MiB (86%)
Writing library : x264 core 148 r2715 7e75228
Encoding settings : cabac=1 / ref=3 / deblock=1:0:0 / analyse=0x1:0x111 / me=umh / subme=10 / psy=1 / psy_rd=1.00:0.00 / mixed_ref=1 / me_range=24 / chroma_me=1 / trellis=2 / 8x8dct=0 / cqm=0 / deadzone=21,11 / fast_pskip=1 / chroma_qp_offset=-2 / threads=8 / lookahead_threads=1 / sliced_threads=0 / nr=0 / decimate=1 / interlaced=0 / bluray_compat=0 / stitchable=1 / constrained_intra=0 / bframes=2 / b_pyramid=0 / b_adapt=2 / b_bias=0 / direct=3 / weightb=1 / open_gop=0 / weightp=2 / keyint=48 / keyint_min=25 / scenecut=0 / intra_refresh=0 / rc_lookahead=48 / rc=2pass / mbtree=1 / bitrate=4870 / ratetol=1.0 / qcomp=0.50 / qpmin=6 / qpmax=51 / qpstep=4 / cplxblur=20.0 / qblur=0.5 / vbv_maxrate=7305 / vbv_bufsize=9740 / nal_hrd=vbr / filler=0 / ip_ratio=1.40 / aq=1:1.00
Default : Yes
Forced : No
Audio #1
ID : 2
Format : AC-3
Format/Info : Audio Coding 3
Format settings, Endianness : Big
Codec ID : A_AC3
Duration : 27 min 56 s
Bit rate mode : Constant
Bit rate : 384 kb/s
Channel(s) : 6 channels
Channel positions : Front: L C R, Side: L R, LFE
Sampling rate : 48.0 kHz
Frame rate : 31.250 FPS (1536 SPF)
Bit depth : 16 bits
Compression mode : Lossy
Stream size : 76.7 MiB (7%)
Title : TVShows
Language : Russian
Service kind : Complete Main
Default : Yes
Forced : No
Audio #2
ID : 3
Format : AC-3
Format/Info : Audio Coding 3
Format settings, Endianness : Big
Codec ID : A_AC3
Duration : 27 min 56 s
Bit rate mode : Constant
Bit rate : 384 kb/s
Channel(s) : 6 channels
Channel positions : Front: L C R, Side: L R, LFE
Sampling rate : 48.0 kHz
Frame rate : 31.250 FPS (1536 SPF)
Bit depth : 16 bits
Compression mode : Lossy
Stream size : 76.7 MiB (7%)
Title : Original
Language : English
Service kind : Complete Main
Default : No
Forced : No
Text
ID : 4
Format : UTF-8
Codec ID : S_TEXT/UTF8
Codec ID/Info : UTF-8 Plain Text
Duration : 22 min 39 s
Bit rate : 14 b/s
Count of elements : 103
Stream size : 2.47 KiB (0%)
Title : English
Language : English
Default : No
Forced : No

Скриншоты

Download

Download free and at maximum speed!

How to Download? · What is a torrent? · Ratings and Limitations




You cannot post new topics in this forum
You cannot reply to topics in this forum
You cannot edit your posts in this forum
You cannot delete your posts in this forum
You cannot vote in polls in this forum
You cannot attach files in this forum
You cannot download files in this forum