Каслвания / Castlevania / Сезон: 2 / Серии: 1-8 из 8 (Сэм Диц / Sam Deats) [2018, США, Мультфильм, ужасы, фэнтези, боевик, приключения, WEBRip 720p] MVO (AlexFilm) + Original


by Boris G ®
16-Дек-2018 11:14

[Цитировать]

Каслвания / Castlevania / Сезон: 2 / Серии: 1-8 из 8 (Сэм Диц / Sam Deats) [2018, США, Мультфильм, ужасы, фэнтези, боевик, приключения, WEBRip 720p] MVO (AlexFilm) + Original

Каслвания / Castlevania
Год выпуска: 2018
Страна: США
Жанр: Мультфильм, ужасы, фэнтези, боевик, приключения
Продолжительность: ~00:25:00
Перевод: Профессиональный (многоголосый закадровый) | AlexFilm
Режиссёр: Сэм Диц / Sam Deats
В ролях: Ричард Армитедж, Тони Амендола, Мэтт Фрюэр, Эмили Суоллоу, Джеймс Кэллис, Алехандра Рейносо, Грэм МакТавиш
Описание: Смелая девушка Лиза приходит прямиком в замок графа Дракулы, чтобы тот поделился с ней всеми доступными научными знаниями. У неё благородная цель — девушка хочет стать лучшим врачом и облегчить жизнь людей, но местные не оценили рвения, и уже через год Лизу сжигают на костре за колдовство. Взбешённый Дракула решает мстить за любимую — он даёт жителям города год, а затем насылает на них полчища демонов из ада.

Качество: WEBRip 720p
Формат: MKV
Видео: H.264, 1280x720, 23,976 fps, ~4000 kbps
Аудио #1: 48 kHz, AC3, ~384.00 kbps (Rus)
Аудио #2: 48 kHz, AC3, ~384.00 kbps (Eng)
Субтитры: нет
Реклама: отсутствует

Релиз

Релиз: AlexFilm
Перевод: Дияна Младенович
Монтаж и сведение звука: Михаил Шорыгин
Роли озвучивали: Екатерина Муравицкая, Константин Федосеев, Алексей Никитин, Кирилл Патрино, Михаил Федосеев.

Список серий

01. War Council
02. Old Homes
03. Shadow Battles
04. Broken Mast
05. Last Spell
06. The River
07. For Love
08. End Times

MediaInfo

Общее
Уникальный идентификатор : 201791118818052150299096481283426893168 (0x97CF8E4A807D2AE6A6E9374DC9AE3D70)
Полное имя : D:\Видео\Сериалы\Castlevania (S02)\Castlevania.s02e01.mkv
Формат : Matroska
Версия формата : Version 4 / Version 2
Размер файла : 913 Мбайт
Продолжительность : 25 м. 12 с.
Режим общего битрейта : Переменный
Общий поток : 5064 Кбит/сек
Название фильма : Castlevania 2x01 @ AlexFilm
Дата кодирования : UTC 2018-11-24 14:44:42
Программа кодирования : mkvmerge v8.4.0 ('A better way to fly') 64bit
Библиотека кодирования : libebml v1.3.1 + libmatroska v1.4.2Видео
Идентификатор : 1
Формат : AVC
Формат/Информация : Advanced Video Codec
Профиль формата : Main@L3.1
Настройки формата : CABAC / 3 Ref Frames
Параметр CABAC формата : Да
Параметр RefFrames формата : 3 кадра
Идентификатор кодека : V_MPEG4/ISO/AVC
Продолжительность : 25 м. 11 с.
Вид битрейта : Переменный
Битрейт : 4420 Кбит/сек
Максимальный битрейт : 6630 Кбит/сек
Ширина : 1280 пикселей
Высота : 720 пикселей
Соотношение сторон : 16:9
Режим частоты кадров : Постоянный
Частота кадров : 23,976 (24000/1001) кадра/сек
Цветовое пространство : YUV
Субдискретизация насыщенности : 4:2:0
Битовая глубина : 8 бит
Тип развёртки : Прогрессивная
Бит/(Пиксели*Кадры) : 0.200
Размер потока : 774 Мбайт (85%)
Библиотека кодирования : x264 core 148 r2715 7e75228
Настройки программы : cabac=1 / ref=3 / deblock=1:0:0 / analyse=0x1:0x111 / me=umh / subme=10 / psy=1 / psy_rd=1.00:0.00 / mixed_ref=1 / me_range=24 / chroma_me=1 / trellis=2 / 8x8dct=0 / cqm=0 / deadzone=21,11 / fast_pskip=1 / chroma_qp_offset=-2 / threads=8 / lookahead_threads=1 / sliced_threads=0 / nr=0 / decimate=1 / interlaced=0 / bluray_compat=0 / stitchable=1 / constrained_intra=0 / bframes=2 / b_pyramid=0 / b_adapt=2 / b_bias=0 / direct=3 / weightb=1 / open_gop=0 / weightp=2 / keyint=48 / keyint_min=25 / scenecut=0 / intra_refresh=0 / rc_lookahead=48 / rc=2pass / mbtree=1 / bitrate=4420 / ratetol=1.0 / qcomp=0.50 / qpmin=6 / qpmax=51 / qpstep=4 / cplxblur=20.0 / qblur=0.5 / vbv_maxrate=6630 / vbv_bufsize=8840 / nal_hrd=vbr / filler=0 / ip_ratio=1.40 / aq=1:1.00
Default : Да
Forced : НетАудио #1
Идентификатор : 2
Формат : AC-3
Формат/Информация : Audio Coding 3
Идентификатор кодека : A_AC3
Продолжительность : 25 м. 12 с.
Вид битрейта : Постоянный
Битрейт : 384 Кбит/сек
Каналы : 2 канала
Расположение каналов : Front: L R
Частота : 48,0 КГц
Частота кадров : 31,250 кадров/сек (1536 SPF)
Битовая глубина : 16 бит
Метод сжатия : С потерями
Размер потока : 69,2 Мбайт (8%)
ServiceKind/String : Complete Main
Default : Да
Forced : НетАудио #2
Идентификатор : 3
Формат : AC-3
Формат/Информация : Audio Coding 3
Идентификатор кодека : A_AC3
Продолжительность : 25 м. 12 с.
Вид битрейта : Постоянный
Битрейт : 384 Кбит/сек
Каналы : 2 канала
Расположение каналов : Front: L R
Частота : 48,0 КГц
Частота кадров : 31,250 кадров/сек (1536 SPF)
Битовая глубина : 16 бит
Метод сжатия : С потерями
Размер потока : 69,2 Мбайт (8%)
ServiceKind/String : Complete Main
Default : Нет
Forced : Нет

Скриншоты





Скачать

Скачать бесплатно и на максимальной скорости!

Как скачивать? · Что такое торрент? · Рейтинг и ограничения




Вы не можете начинать темы
Вы не можете отвечать на сообщения
Вы не можете редактировать свои сообщения
Вы не можете удалять свои сообщения
Вы не можете голосовать в опросах
Вы не можете прикреплять файлы к сообщениям
Вы не можете скачивать файлы