Принц-дракон / The Dragon Prince / Сезон: 1 / Серии: 1-9 из 9 (Джастин Ричмонд) [2018, США, Мультсериал, фэнтези, WEB-DL 1080p] MVO (AlexFilm) + Original + Sub (rus, eng)


by Boris G ®
16-Дек-2018 11:08

[Цитировать]

Принц-дракон / The Dragon Prince / Сезон: 1 / Серии: 1-9 из 9 (Джастин Ричмонд) [2018, США, Мультсериал, фэнтези, WEB-DL 1080p] MVO (AlexFilm) + Original + Sub (rus, eng)

Принц-дракон / The Dragon Prince
Страна: США
Жанр: Мультсериал, фантастика
Продолжительность серии: 00:24:00
Год выпуска: 2018
Перевод: Профессиональный (многоголосый закадровый) - AlexFilm, Субтитры
Русские субтитры: есть
Режиссёр: Джастин Ричмонд
Роли озвучивали: Паула Берроуз, Джек Де Сена, Саша Роджен
Описание: Сюжет истории пойдет о двух принцах, которые объединят свои силы с эльфом, которому было поручено убить их. Вместе они начнут своё удивительное путешествие, чтобы улучшить мир людей. В мультсериале вы увидите много экшена, сражений, невероятные приключения героев мультика, а также драконов.
Качество: WEB-DL
Формат: MKV
Видео: AVC, 1920x1080, 23.976 fps, ~4000 kbps
Аудио 1: 48 kHz, AC3, 6 ch, 384 kbps | Rus
Аудио 2: 48 kHz, EAC3, 6 ch, 448 kbps | Eng
Субтитры: русские, английские вшитые

Список серий

1. Echoes of Thunder
2. What Is Done
3. Moonrise
4. Bloodthirsty
5. An Empty Throne
6. Through the Ice
7. The Dagger and the Wolf
8. Cursed Caldera
9. Wonderstorm

Подробные технические данные

Общее
Уникальный идентификатор : 225735949893029568479576742049624749752 (0xA9D3299C606BC2AFAFBE18888F05F6B8)
Полное имя : Z:\Мульты\The Dragon Prince\The Dragon Prince s01e01 Echoes of Thunder.mkv
Формат : Matroska
Версия формата : Version 4
Размер файла : 821 Мбайт
Продолжительность : 24 м. 38 с.
Режим общего битрейта : Переменный
Общий поток : 4655 Кбит/сек
Название фильма : Echoes of Thunder
Дата кодирования : UTC 2018-12-13 20:59:50
Программа кодирования : mkvmerge v27.0.0 ('Metropolis') 64-bit
Библиотека кодирования : libebml v1.3.6 + libmatroska v1.4.9
Видео
Идентификатор : 1
Формат : AVC
Формат/Информация : Advanced Video Codec
Профиль формата : Main@L4
Настройки формата : CABAC / 3 Ref Frames
Параметр CABAC формата : Да
Параметр RefFrames формата : 3 кадра
Идентификатор кодека : V_MPEG4/ISO/AVC
Продолжительность : 24 м. 38 с.
Вид битрейта : Переменный
Битрейт : 4020 Кбит/сек
Максимальный битрейт : 6030 Кбит/сек
Ширина : 1920 пикселей
Высота : 1080 пикселей
Соотношение сторон : 16:9
Режим частоты кадров : Постоянный
Частота кадров : 23,976 (24000/1001) кадра/сек
Цветовое пространство : YUV
Субдискретизация насыщенности : 4:2:0
Битовая глубина : 8 бит
Тип развёртки : Прогрессивная
Бит/(Пиксели*Кадры) : 0.081
Размер потока : 677 Мбайт (82%)
Библиотека кодирования : x264 core 148 r2715 7e75228
Настройки программы : cabac=1 / ref=3 / deblock=1:0:0 / analyse=0x1:0x111 / me=umh / subme=10 / psy=1 / psy_rd=1.00:0.00 / mixed_ref=1 / me_range=24 / chroma_me=1 / trellis=2 / 8x8dct=0 / cqm=0 / deadzone=21,11 / fast_pskip=1 / chroma_qp_offset=-2 / threads=8 / lookahead_threads=1 / sliced_threads=0 / nr=0 / decimate=1 / interlaced=0 / bluray_compat=0 / stitchable=1 / constrained_intra=0 / bframes=2 / b_pyramid=0 / b_adapt=2 / b_bias=0 / direct=3 / weightb=1 / open_gop=0 / weightp=2 / keyint=48 / keyint_min=25 / scenecut=0 / intra_refresh=0 / rc_lookahead=48 / rc=2pass / mbtree=1 / bitrate=4020 / ratetol=1.0 / qcomp=0.50 / qpmin=6 / qpmax=51 / qpstep=4 / cplxblur=20.0 / qblur=0.5 / vbv_maxrate=6030 / vbv_bufsize=8040 / nal_hrd=vbr / filler=0 / ip_ratio=1.40 / aq=1:1.00
Default : Да
Forced : Нет
Аудио #1
Идентификатор : 2
Формат : AC-3
Формат/Информация : Audio Coding 3
Коммерческое название : Dolby Digital
Идентификатор кодека : A_AC3
Продолжительность : 23 м. 26 с.
Вид битрейта : Постоянный
Битрейт : 384 Кбит/сек
Каналы : 6 каналов
Channel layout : L R C LFE Ls Rs
Частота : 48,0 КГц
Частота кадров : 31,250 кадров/сек (1536 SPF)
Битовая глубина : 16 бит
Метод сжатия : С потерями
Размер потока : 64,4 Мбайт (8%)
Заголовок : AlexFilm
Язык : Russian
ServiceKind/String : Complete Main
Default : Да
Forced : Нет
Аудио #2
Идентификатор : 3
Формат : E-AC-3
Формат/Информация : Enhanced AC-3
Коммерческое название : Dolby Digital Plus
Идентификатор кодека : A_EAC3
Продолжительность : 24 м. 38 с.
Вид битрейта : Постоянный
Битрейт : 448 Кбит/сек
Каналы : 6 каналов
Channel layout : L R C LFE Ls Rs
Частота : 48,0 КГц
Частота кадров : 31,250 кадров/сек (1536 SPF)
Метод сжатия : С потерями
Размер потока : 79,0 Мбайт (10%)
Заголовок : English
Язык : English
ServiceKind/String : Complete Main
Default : Нет
Forced : Нет
Текст #1
Идентификатор : 4
Формат : UTF-8
Идентификатор кодека : S_TEXT/UTF8
Идентификатор кодека/Информация : UTF-8 Plain Text
Продолжительность : 23 м. 6 с.
Битрейт : 63 бит/сек
ElementCount : 229
Размер потока : 10,7 Кбайт (0%)
Язык : Russian
Default : Да
Forced : Нет
Текст #2
Идентификатор : 5
Формат : UTF-8
Идентификатор кодека : S_TEXT/UTF8
Идентификатор кодека/Информация : UTF-8 Plain Text
Продолжительность : 22 м. 16 с.
Битрейт : 52 бит/сек
ElementCount : 258
Размер потока : 8,63 Кбайт (0%)
Заголовок : English [SDH]
Язык : English
Default : Нет
Forced : Нет

Скриншоты

ТЫКАЕМ СПАСИБО, ПОМОГАЕМ РАЗДАВАТЬ!
Скачать

Скачать бесплатно и на максимальной скорости!

Как скачивать? · Что такое торрент? · Рейтинг и ограничения




Вы не можете начинать темы
Вы не можете отвечать на сообщения
Вы не можете редактировать свои сообщения
Вы не можете удалять свои сообщения
Вы не можете голосовать в опросах
Вы не можете прикреплять файлы к сообщениям
Вы не можете скачивать файлы