Братья Вентура / The Venture Bros. / Сезон: 7 / Серии: 1-10 (10) (Джексон Паблик, Док Хаммер / Jackson Publick, Doc Hammer) [2018, Чёрная Комедия, Пародия, Приключения, WEB-DL 1080p] VO (Voice Power) + Sub (Rus, Eng)


by Boris G ®
16-Dec-2018 11:00

[Quote]

Братья Вентура / The Venture Bros. / Сезон: 7 / Серии: 1-10 (10) (Джексон Паблик, Док Хаммер / Jackson Publick, Doc Hammer) [2018, Чёрная Комедия, Пародия, Приключения, WEB-DL 1080p] VO (Voice Power) + Sub (Rus, Eng)

Братья Вентура / The Venture Bros.
Страна: США
Студия: Astro Base GO!, Titmouse, Inc.
Жанр: Чёрная Комедия, Пародия, Приключения
Продолжительность первой серии: ~ 22 мин.
Год выпуска: 2018
Перевод: Одноголосый закадровый { Voice Power } (только 1-9 серия)
Русские субтитры: { Carma Is A Bitch }
Режиссёр:
Джексон Паблик, Док Хаммер / Jackson Publick, Doc Hammer
Роли озвучивали: Джексон Паблик, Док Хаммер, Джеймс Урбаняк, Патрик Уобертон, Майкл Синтерниклаас, Дана Шнайдер, Стивен Ретеззи
Описание: Вражда и шпионаж, модные в 60-ые годы дожили до наших дней. Мир, в котором происходит действие, совмещает современность и то, каким видели будущее в середине XX века. В этом мире суперзлодеи враждуют с супергероями, суперучёнными или между собой. Во избежание беспредела вражда регулируется некими подпольными преступными синдикатами организованного хаоса, наиболее крупный из которых - Гильдия Пагубных Намерений. Она помогает подобрать заклятого врага и контролирует исполнение своего устава, чтобы всё было честно. Из-за коррупции полиция не вмешивается в их дела, однако действует разведка: "Если мы не будем подглядывать за соседями, плохие ребята сделают бомбу и весь мир взорвётся!". Многие персонажи, как положительные, так и отрицательные, заимствованы из вселенных Marvel и DC, но снабжены всеми пороками. Мультсериал содержит немалое количество пародий и отсылок к реалиям и массовой культуре ушедшего столетия.
Качество: AMZN WEB-DL 1080p |CtrlHD|
Формат: MKV
Видео: MPEG-4 AVC, 1920x1080, 23.976 fps, ~3000 kbps
Аудио 1: Русский, AC3 Dolby Digital, 6 ch, 640 kbps, 48 kHz
Аудио 2: Английский, E-AC3 Dolby Digital, 6 ch, 640 kbps, 48 kHz
Субтитры: Русские, Английские (SDH) | Advanced Sub Station Alpha

Список Серий

01 The Venture Bros. & The Curse of the Haunted Problem / Братья Вентура и Проклятье Проблемы с Призраками
02 The Rorqual Affair / Дело Полосатиковых
03 Arrears in Science / Задолженности в Науке
04 The High Cost of Loathing / Высокая Цена Ненависти
05 The Anamorata Consequence / Последствия Влюблённости
06 The Bellicose Proxy / Воинственная Марионетка
07 The Unicorn in Captivity / Единорог в Неволе
08 The Terminus Mandate / Окончательный Мандат
09 The Forecast Manufacturer / Производитель Прогнозов
10 The Saphrax Protocol / Протокол "Сафрак"

Скриншоты


MediaInfo

Общее
Уникальный идентификатор : 236565243011266372135226559992117651541 (0xB1F8CEFBEE5F2AB9ADFE9A1592B8E855)
Полное имя : C:\Раздачи\The.Venture.Bros.S07.2018.x264.WEB-DL.1080p-SergeZuich\01 The Venture Bros. & The Curse of the Haunted Problem.mkv
Формат : Matroska
Версия формата : Version 4 / Version 2
Размер файла : 640 Мбайт
Продолжительность : 22 м. 35 с.
Общий поток : 3960 Кбит/сек
Дата кодирования : UTC 2018-08-24 18:20:41
Программа кодирования : mkvmerge v8.3.0 ('Over the Horizon') 64bit
Библиотека кодирования : libebml v1.3.1 + libmatroska v1.4.2Видео
Идентификатор : 1
Формат : AVC
Формат/Информация : Advanced Video Codec
Профиль формата : High@L4
Настройки формата : CABAC / 4 Ref Frames
Параметр CABAC формата : Да
Параметр RefFrames формата : 4 кадра
Идентификатор кодека : V_MPEG4/ISO/AVC
Продолжительность : 22 м. 34 с.
Битрейт : 2677 Кбит/сек
Ширина : 1920 пикселей
Высота : 1080 пикселей
Соотношение сторон : 16:9
Режим частоты кадров : Постоянный
Частота кадров : 23,976 (24000/1001) кадра/сек
Цветовое пространство : YUV
Субдискретизация насыщенности : 4:2:0
Битовая глубина : 8 бит
Тип развёртки : Прогрессивная
Бит/(Пиксели*Кадры) : 0.054
Размер потока : 432 Мбайт (68%)
Заголовок : The Venture Bros. & The Curse of the Haunted Problem
Default : Да
Forced : Нет
Цветовой диапазон : Limited
Основные цвета : BT.709
Характеристики трансфера : BT.709
Коэффициенты матрицы : BT.709Аудио #1
Идентификатор : 2
Формат : AC-3
Формат/Информация : Audio Coding 3
Идентификатор кодека : A_AC3
Продолжительность : 22 м. 35 с.
Вид битрейта : Постоянный
Битрейт : 640 Кбит/сек
Каналы : 6 каналов
Расположение каналов : Front: L C R, Side: L R, LFE
Частота : 48,0 КГц
Частота кадров : 31,250 кадров/сек (1536 SPF)
Битовая глубина : 16 бит
Метод сжатия : С потерями
Размер потока : 103 Мбайт (16%)
Заголовок : VO { Voice Power } - AC3 Dolby Digital, 6ch, 640 kbps, 48 kHz
Язык : Russian
ServiceKind/String : Complete Main
Default : Да
Forced : НетАудио #2
Идентификатор : 3
Формат : E-AC-3
Формат/Информация : Enhanced Audio Coding 3
Идентификатор кодека : A_EAC3
Продолжительность : 22 м. 35 с.
Вид битрейта : Постоянный
Битрейт : 640 Кбит/сек
Каналы : 6 каналов
Расположение каналов : Front: L C R, Side: L R, LFE
Частота : 48,0 КГц
Частота кадров : 187,500 кадров/сек (256 SPF)
Метод сжатия : С потерями
Размер потока : 103 Мбайт (16%)
Заголовок : Original - E-AC3 Dolby Digital, 6ch, 640 kbps, 48 kHz
Язык : English
ServiceKind/String : Complete Main
Default : Нет
Forced : НетТекст #1
Идентификатор : 4
Формат : ASS
Идентификатор кодека : S_TEXT/ASS
Идентификатор кодека/Информация : Advanced Sub Station Alpha
Продолжительность : 22 м. 15 с.
Битрейт : 260 бит/сек
ElementCount : 474
Метод сжатия : Без потерь
Размер потока : 42,4 Кбайт (0%)
Заголовок : Братья Вентура и Проклятье Проблемы с Призраками
Язык : Russian
Default : Да
Forced : НетТекст #2
Идентификатор : 5
Формат : ASS
Идентификатор кодека : S_TEXT/ASS
Идентификатор кодека/Информация : Advanced Sub Station Alpha
Продолжительность : 22 м. 22 с.
Битрейт : 231 бит/сек
ElementCount : 524
Метод сжатия : Без потерь
Размер потока : 37,9 Кбайт (0%)
Заголовок : The Venture Bros. & The Curse of the Haunted Problem (SDH)
Язык : English
Default : Нет
Forced : Нет
Download

Download free and at maximum speed!

How to Download? · What is a torrent? · Ratings and Limitations




You cannot post new topics in this forum
You cannot reply to topics in this forum
You cannot edit your posts in this forum
You cannot delete your posts in this forum
You cannot vote in polls in this forum
You cannot attach files in this forum
You cannot download files in this forum