Лагерь Лагерь / Camp Camp / Сезон: 3 / Серии: 1-14 из 14 (Джордан Свиерз, Майлз Луна, Керри Шоукросс / Jordan Cwierz, Miles Luna, Kerry Shawcross) [2018, США, комедия, приключения, WEBRip 1080p] DVO (NewStation) + Original


by Boris G ®
16-Dec-2018 10:51

[Quote]

Лагерь Лагерь / Camp Camp / Сезон: 3 / Серии: 1-14 из 14 (Джордан Свиерз, Майлз Луна, Керри Шоукросс / Jordan Cwierz, Miles Luna, Kerry Shawcross) [2018, США, комедия, приключения, WEBRip 1080p] DVO (NewStation) + Original

Лагерь Лагерь / Camp Camp
Страна: США
Жанр: Комедия, приключения
Год выпуска: 2018
Продолжительность: 00:13:25
Перевод: Двухголосый закадровый NewStation
Режиссер: Джордан Свиерз, Майлз Луна, Керри Шоукросс / Jordan Cwierz, Miles Luna, Kerry Shawcross
Субтитры: нет
В ролях: Майлз Луна, Майкл Джонс, Элизабет Максвелл
Описание: Трое детей: Макс, Нил и Никки, проводят летние каникулы в долбанутом лагере под названием «Лагерь-Кэмпбелла», которым заведуют двое вожатых : бесконечно веселый и радостный оптимист Дэвид и недовольная пессимистка Гвэн.
Доп. информация: В сериале присутствует ненормативная лексика.
Качество: WEBRip 1080p
Формат: MKV
Видео: AVC, 1920x1080, 16:9, 24,000 кадров/сек, ~496 Кбит/сек
Аудио #1: [RUS] AC-3, 2ch, 48 kHz, 192 kbps
Аудио #2: [ENG] AAC, 2ch, 44.1 kHz, 126 kbps

Скриншоты

MediaInfo

General
Unique ID : 105128020636989208164400441164126675698 (0x4F16EB986170115F8121852E7846E2F2)
Complete name : D:\NewStation\Camp.Camp.s03.WEBRip.1080p.NewStation\Camp.Camp.s03e01.WEBRip.1080p.NewStation.mkv
Format : Matroska
Format version : Version 4 / Version 2
File size : 79.2 MiB
Duration : 12 min 35 s
Overall bit rate : 880 kb/s
Encoded date : UTC 2018-06-08 19:58:09
Writing application : mkvmerge v19.0.0 ('Brave Captain') 64-bit
Writing library : libebml v1.3.5 + libmatroska v1.4.8Video
ID : 1
Format : AVC
Format/Info : Advanced Video Codec
Format profile : High@L4
Format settings : CABAC / 3 Ref Frames
Format settings, CABAC : Yes
Format settings, RefFrames : 3 frames
Codec ID : V_MPEG4/ISO/AVC
Duration : 12 min 35 s
Bit rate : 496 kb/s
Width : 1 920 pixels
Height : 1 080 pixels
Display aspect ratio : 16:9
Frame rate mode : Constant
Frame rate : 24.000 FPS
Color space : YUV
Chroma subsampling : 4:2:0
Bit depth : 8 bits
Scan type : Progressive
Bits/(Pixel*Frame) : 0.010
Stream size : 44.6 MiB (56%)
Default : Yes
Forced : No
Color range : Limited
Color primaries : BT.709
Transfer characteristics : BT.709
Matrix coefficients : BT.709Audio #1
ID : 2
Format : AC-3
Format/Info : Audio Coding 3
Codec ID : A_AC3
Duration : 12 min 35 s
Bit rate mode : Constant
Bit rate : 256 kb/s
Channel(s) : 2 channels
Channel positions : Front: L R
Sampling rate : 48.0 kHz
Frame rate : 31.250 FPS (1536 SPF)
Bit depth : 16 bits
Compression mode : Lossy
Stream size : 23.0 MiB (29%)
Title : NewStation
Language : Russian
Service kind : Complete Main
Default : Yes
Forced : NoAudio #2
ID : 3
Format : AAC
Format/Info : Advanced Audio Codec
Format profile : LC
Codec ID : A_AAC-2
Duration : 12 min 35 s
Bit rate : 126 kb/s
Channel(s) : 2 channels
Channel positions : Front: L R
Sampling rate : 44.1 kHz
Frame rate : 43.066 FPS (1024 SPF)
Compression mode : Lossy
Stream size : 11.3 MiB (14%)
Title : Original
Default : No
Forced : No
Download

Download free and at maximum speed!

How to Download? · What is a torrent? · Ratings and Limitations




You cannot post new topics in this forum
You cannot reply to topics in this forum
You cannot edit your posts in this forum
You cannot delete your posts in this forum
You cannot vote in polls in this forum
You cannot attach files in this forum
You cannot download files in this forum